• Игры для PS4
  • Игры для PS3
  • Игры для XBOX360
  • Игры для PC
  • Игры для PS2
  • Игры для PSP
  • Для телефонов
  • Музыка
  • Книги / Журналы
  • Обои
  • Опрос
    Удобен ли сайт в использовании?
      0
    • Очень удобен, все понятно1,1,false,300,full
    • Удобен1,2,false,300,full
    • Средне1,3,false,300,full
    • Неудобен, трудно ориентироваться1,4,false,300,full
    • Совсем неудобен1,5,false,300,full
    Статистика
    Всего онлайн -
    Гостей -
    Пользователей -
    Короли трекера
    Благодарности () Закрыть
    Информация о фильме
    Название: Доктор Кто
    Оригинальное название: Doctor Who
    Год выпуска: 2018
    Жанр:  Фантастика, приключения
    Режиссер: Бен Уитли
    В ролях: Питер Капальди, Дженна Коулман, Нив МакИнтош, Дэн Старки, Зэйв Эштон, Майкл Смайли, Том Райли, Сэмюэл Андерсон, Кили Хоуз, Пиппа Беннетт-Уорнер, Кристофер Дэйн, Дэвид Бамбер, Мишель Гомес

    О фильме:
    Доктор Кто (Doctor Who) — британский научно-фантастический телесериал компании BBC о загадочном путешественнике во времени, известном как Доктор. Вместе со своими спутниками он путешествует во времени и пространстве как для спасения целых цивилизаций, так и для собственного удовольствия. «Доктор Кто» — самый продолжительный научно-фантастический сериал в мире, важная часть массовой культуры Великобритании и многих других стран.

    [img]https://u.myshows.me/r/331.png[/img]
    Страна: Великобритания
    Студия: British Broadcasting Corporation (BBC)
    Продолжительность: 9 x ~ 01:01:00
    Перевод: Любительский многоголосый | ColdFilm

    Файл
    Кодек: x264 (AVC)
    Качество: WEBRip 720p
    Видео: ~ 3000 Кбит/с, 1280x720, 25.000 fps
    Звук: Русский / AAC / 2.0 / 128 kbs

    [img]http://s020.radikal.ru/i712/1701/ad/1bb0bd9bc94a.gif[/img][img]https://a.radikal.ru/a25/1808/89/98e67176e03c.png[/img]

    Скриншоты

    [screen]https://i4.imageban.ru/out/2018/10/08/1d03a7397f064e4ae0fcc1aabd484485.png[/screen][screen]https://i6.imageban.ru/out/2018/10/08/8220ca0565a577fdbbc44fca5545d853.png[/screen][screen]https://i5.imageban.ru/out/2018/10/08/3031785975aaec5abf7a5a430bb34d91.png[/screen][screen]https://i5.imageban.ru/out/2018/10/08/32959a73cd9213875762fc403f2ddd01.png[/screen]
    Свернуть


    MI
    General
    Unique ID                   : 204385399069825357826083269452041176404 (0x99C3322EC97126F986651ED3CC564554)
    Complete name               :Doctor.Who.S11E01.720p.ColdFilm.mkv
    Format                      : Matroska
    Format version              : Version 2
    File size                   : 1.38 GiB
    Duration                    : 1 h 1 min
    Overall bit rate            : 3 195 kb/s
    Encoded date                : UTC 2018-10-07 20:48:29 / UTC 2017-11-20 18:25:40
    Writing application         : mkvmerge v3.3.0 ("Language") built on Mar 24 2010 14:59:24
    Writing library             : libebml v0.8.0 + libmatroska v0.9.0 / Lavf54.63.104

    Video
    ID                          : 1
    Format                      : AVC
    Format/Info                 : Advanced Video Codec
    Format profile              : Main@L3.1
    Format settings             : CABAC / 1 Ref Frames
    Format settings, CABAC      : Yes
    Format settings, ReFrames   : 1 frame
    Codec ID                    : V_MPEG4/ISO/AVC
    Duration                    : 1 h 1 min
    Bit rate                    : 3 000 kb/s
    Width                       : 1 280 pixels
    Height                      : 720 pixels
    Display aspect ratio        : 16:9
    Frame rate mode             : Constant
    Frame rate                  : 25.000 FPS
    Color space                 : YUV
    Chroma subsampling          : 4:2:0
    Bit depth                   : 8 bits
    Scan type                   : Progressive
    Bits/(Pixel*Frame)          : 0.130
    Stream size                 : 1.27 GiB (92%)
    Writing library             : x264 core 129
    Default                     : No
    Forced                      : No

    Audio
    ID                          : 2
    Format                      : AC-3
    Format/Info                 : Audio Coding 3
    Codec ID                    : A_AC3
    Duration                    : 1 h 1 min
    Bit rate mode               : Constant
    Bit rate                    : 192 kb/s
    Channel(s)                  : 2 channels
    Channel positions           : Front: L R
    Sampling rate               : 48.0 kHz
    Frame rate                  : 31.250 FPS (1536 SPF)
    Bit depth                   : 16 bits
    Compression mode            : Lossy
    Stream size                 : 85.1 MiB (6%)
    Service kind                : Complete Main
    Default                     : Yes
    Forced                      : No

    Свернуть
    Похожие раздачи Искать похожие
    Инструкция по скачиванию
     1  Качаем uTorrent версии 2.0 и выше
     2  После установки, жмем выше под постером на ссылку Скачать [MediaGet] или Скачать .torrent
     3  Открываем скачанный файл через соответствующий клиент: MediaGet или uTorrent
     4  Ждем пока подключатся участники
     5  Качаем
    Комментарии о  Доктор Кто / Doctor Who [Сезон 11 | 01-09 серии из 12] | WEBRip 720p 
    Ближайшее в кино
    Вверх