• Игры для PS4
  • Игры для PS3
  • Игры для XBOX360
  • Игры для PC
  • Игры для PS2
  • Игры для PSP
  • Для телефонов
  • Музыка
  • Книги / Журналы
  • Обои
  • Опрос
    Удобен ли сайт в использовании?
      0
    • Очень удобен, все понятно1,1,false,300,full
    • Удобен1,2,false,300,full
    • Средне1,3,false,300,full
    • Неудобен, трудно ориентироваться1,4,false,300,full
    • Совсем неудобен1,5,false,300,full
    Статистика
    Всего онлайн -
    Гостей -
    Пользователей -
    Короли трекера
    Благодарности () Закрыть
    Информация о фильме
    Название: Полной грудью
    Оригинальное название: Breathe In
    Жанр:  драма, мелодрама
    Год выпуска: 2013
    Режиссёр: Дрэйк Доремус
    В ролях: Гай Пирс, Фелисити Джонс, Эми Райан, Кайл МакЛоклен, Александра Уэнтуорт

    О фильме:
    Когда иностранная студентка по обмену прибывает в маленький городок на севере штата Нью-Йорк, она навсегда меняет взаимоотношения в принявшей ее семье, а также жизни членов этой семьи.



    Выпущено: США
    Продолжительность: 01:37:14
    Озвучивание: Профессиональный, многоголосый закадровый (ARSPRO)

    Файл
    Формат: MKV
    Качество: BDRip 1080p [BLUEBIRD]
    Видео: MPEG-4 AVC, 7385 Кбит/с, 1920x806, 23.976 Кадр/с
    Аудио #1: Dolby Digital Audio, 384 kbps, 5.1 / 48 kHz / 384 kbps / DN -4dB - Russian, Профессиональный многоголосый  
    Аудио #2: DTS Audio, 1509 kbps, 5.1 / 48 kHz / 1509 kbps - English
    Субтитры: Russian, English
    Дополнительно: За исходник и за корректировку субтитров спасибо Sergei7721.

    M/I
    x264
    x264 [info]: frame I:911   Avg QP:14.81  size:147654
    x264 [info]: frame P:28289 Avg QP:17.12  size: 82213
    x264 [info]: frame B:110681 Avg QP:18.18  size: 26429

    Инфо-файл
    Формат                                   : Matroska
    Версия формата                           : Version 4 / Version 2
    Размер файла                             : 6,30 Гбайт
    Продолжительность                        : 1 ч. 37 м.
    Общий поток                              : 9280 Кбит/сек
    Название фильма                          : Breathe.In.2013.x264.BDRip.1080p.BLUEBIRD
    Дата кодирования                         : UTC 2017-01-30 18:35:41
    Программа кодирования                    : mkvmerge v7.9.0 ("Birds") 32bit
    Библиотека кодирования                   : libebml v1.3.1 + libmatroska v1.4.2

    Видео
    Идентификатор                            : 1
    Формат                                   : AVC
    Формат/Информация                        : Advanced Video Codec
    Профиль формата                          : High@L4.1
    Параметр CABAC формата                   : Да
    Параметр ReFrames формата                : 5 кадров
    Идентификатор кодека                     : V_MPEG4/ISO/AVC
    Продолжительность                        : 1 ч. 37 м.
    Битрейт                                  : 7385 Кбит/сек
    Ширина                                   : 1920 пикселей
    Высота                                   : 806 пикселей
    Соотношение сторон                       : 2,40:1
    Режим частоты кадров                     : Постоянный
    Частота кадров                           : 23,976 (24000/1001) кадра/сек
    Цветовое пространство                    : YUV
    Субдискретизация насыщенности            : 4:2:0
    Битовая глубина                          : 8 бит
    Тип развёртки                            : Прогрессивная
    Бит/(Пиксели*Кадры)                      : 0.199
    Размер потока                            : 5,02 Гбайт (80%)
    Заголовок                                : Breathe.In.2013.x264.BDRip.1080p.BLUEBIRD
    Библиотека кодирования                   : x264 core 148 r2744 b97ae06
    Настройки программы                      : cabac=1 / ref=5 / deblock=1:-2:-2 / analyse=0x3:0x133 / me=esa / subme=10 / psy=1 / psy_rd=1.10:0.03 / mixed_ref=1 / me_range=48 / chroma_me=1 / trellis=2 / 8x8dct=1 / cqm=0 / deadzone=21,11 / fast_pskip=0 / chroma_qp_offset=-3 / threads=12 / lookahead_threads=2 / sliced_threads=0 / nr=0 / decimate=0 / interlaced=0 / bluray_compat=0 / constrained_intra=0 / bframes=8 / b_pyramid=2 / b_adapt=2 / b_bias=0 / direct=3 / weightb=1 / open_gop=0 / weightp=2 / keyint=240 / keyint_min=23 / scenecut=40 / intra_refresh=0 / rc_lookahead=80 / rc=crf / mbtree=0 / crf=18.0 / qcomp=0.70 / qpmin=0 / qpmax=69 / qpstep=4 / vbv_maxrate=62500 / vbv_bufsize=78125 / crf_max=0.0 / nal_hrd=none / filler=0 / ip_ratio=1.40 / pb_ratio=1.30 / aq=1:0.75 / zones=131909,139880,q=30
    Язык                                     : English
    Default                                  : Да
    Forced                                   : Нет

    Аудио #1
    Идентификатор                            : 2
    Формат                                   : AC-3
    Формат/Информация                        : Audio Coding 3
    Расширение режима                        : CM (complete main)
    Параметр Endianness формата              : Big
    Идентификатор кодека                     : A_AC3
    Продолжительность                        : 1 ч. 37 м.
    Вид битрейта                             : Постоянный
    Битрейт                                  : 384 Кбит/сек
    Каналы                                   : 6 каналов
    Расположение каналов                     : Front: L C R, Side: L R, LFE
    Частота                                  : 48,0 КГц
    Частота кадров                           : 31,250 кадров/сек (1536 spf)
    Битовая глубина                          : 16 бит
    Метод сжатия                             : С потерями
    Размер потока                            : 267 Мбайт (4%)
    Заголовок                                : Профессиональный многоголосый (ARSPRO)
    Язык                                     : Russian
    Default                                  : Да
    Forced                                   : Нет

    Аудио #2
    Идентификатор                            : 3
    Формат                                   : DTS
    Формат/Информация                        : Digital Theater Systems
    Режим                                    : 16
    Параметр Endianness формата              : Big
    Идентификатор кодека                     : A_DTS
    Продолжительность                        : 1 ч. 37 м.
    Вид битрейта                             : Постоянный
    Битрейт                                  : 1509 Кбит/сек
    Каналы                                   : 6 каналов
    Расположение каналов                     : Front: L C R, Side: L R, LFE
    Частота                                  : 48,0 КГц
    Частота кадров                           : 93,750 кадра/сек (512 spf)
    Битовая глубина                          : 24 бит
    Метод сжатия                             : С потерями
    Размер потока                            : 1,02 Гбайт (16%)
    Язык                                     : English
    Default                                  : Нет
    Forced                                   : Нет

    Текст #1
    Идентификатор                            : 4
    Формат                                   : UTF-8
    Идентификатор кодека                     : S_TEXT/UTF8
    Идентификатор кодека/Информация          : UTF-8 Plain Text
    Продолжительность                        : 1 ч. 27 м.
    Битрейт                                  : 52 бит/сек
    Count of elements                        : 660
    Размер потока                            : 33,3 Кбайт (0%)
    Заголовок                                : full
    Язык                                     : Russian
    Default                                  : Нет
    Forced                                   : Нет

    Текст #2
    Идентификатор                            : 5
    Формат                                   : UTF-8
    Идентификатор кодека                     : S_TEXT/UTF8
    Идентификатор кодека/Информация          : UTF-8 Plain Text
    Продолжительность                        : 1 ч. 30 м.
    Битрейт                                  : 39 бит/сек
    Count of elements                        : 770
    Размер потока                            : 26,1 Кбайт (0%)
    Заголовок                                : full
    Язык                                     : English
    Default                                  : Нет
    Forced                                   : Нет

    Меню
    00:00:00.000                             : en:00:00:00.000
    00:08:00.188                             : en:00:08:00.188
    00:19:39.761                             : en:00:19:39.761
    00:29:30.310                             : en:00:29:30.310
    00:39:05.468                             : en:00:39:05.468
    00:47:19.336                             : en:00:47:19.336
    00:52:10.210                             : en:00:52:10.210
    01:02:17.275                             : en:01:02:17.275
    01:12:28.093                             : en:01:12:28.093
    01:20:47.259                             : en:01:20:47.259
    01:27:21.402                             : en:01:27:21.402
    01:31:45.917                             : en:01:31:45.917Свернуть


    Скриншоты
    [screen]http://img11.lostpic.net/2017/01/31/5e4f4c34d0fdaa544ee0d18cdba85460.png[/screen][screen]http://img11.lostpic.net/2017/01/31/918c4ecc2175275d795767d5e8ac57e1.png[/screen][screen]http://img11.lostpic.net/2017/01/31/0933f0e9b641ffc76761ca8fbd8d56cf.png[/screen][screen]http://img11.lostpic.net/2017/01/31/c934b0a36274f01aab3074269431a918.png[/screen]Свернуть
    Похожие раздачи Искать похожие
    Инструкция по скачиванию
     1  Качаем uTorrent версии 2.0 и выше
     2  После установки, жмем выше под постером на ссылку Скачать [MediaGet] или Скачать .torrent
     3  Открываем скачанный файл через соответствующий клиент: MediaGet или uTorrent
     4  Ждем пока подключатся участники
     5  Качаем
    Комментарии о  Полной грудью / Breathe In | BDRip 1080p 
    Ближайшее в кино
    Вверх