• Игры для PS4
  • Игры для PS3
  • Игры для XBOX360
  • Игры для PC
  • Игры для PS2
  • Игры для PSP
  • Для телефонов
  • Музыка
  • Книги / Журналы
  • Обои
  • Опрос
    Откуда Вы о нас узнали?
      0
    • От знакомых2,1,false,300,full
    • Из социальных сетей2,2,false,300,full
    • Из поисковых систем2,3,false,300,full
    • Другое2,4,false,300,full
    Статистика
    Всего онлайн -
    Гостей -
    Пользователей -
    Короли трекера
    Благодарности () Закрыть
    Король Лев
    The Lion King
    «The Circle of Life»

    Название: Король Лев
    Оригинальное название: The Lion King
    Год выпуска: 1994
    Жанр:  Мультфильм, приключения, драма, семейный, мюзикл, полнометражный
    Выпущено: США, Walt Disney Pictures, Walt Disney Feature Animation
    Режиссер: Роджер Аллерс, Роб Минкофф
    В ролях: Джонатан Тейлор Томас, Мэттью Бродерик, Джеймс Эрл Джонс, Джереми Айронс, Мойра Келли, Никета Калам, Эрни Сабелла, Натан Лэйн, Роберт Гийом, Роуэн Аткинсон
    Продолжительность: 01:28:24
    Перевод: Дублированный, профессиональный двухголосый, авторский

    Описание:

    У величественного Короля-Льва Муфасы рождается наследник по имени Симба. Уже в детстве любознательный малыш становится жертвой интриг своего завистливого дяди Шрама, мечтающего о власти. Симба познаёт горе утраты, предательство и изгнание, но в конце концов обретает верных друзей и находит любимую. Закалённый испытаниями, он в нелёгкой борьбе отвоёвывает своё законное место в «Круге жизни», осознав, что значит быть настоящим Королём.



    Файл
    Контейнер: MКV
    Качество: Blu-Ray Remux (2160p)
    Видео: HEVC, 72 Mбит/с, 3840x2160, 23.976 кадр/с

    Аудио #1: AC-3, 48.0 kHz, 6 ch, 640 kb/s, CBR (Russian) | Дублированный
    Аудио #2: DTS MA / Core, 48.0 kHz, 8 / 6 ch, 5 257 kb/s / 1 509 kb/s, VBR / CBR (Russian) | Дублированный* - Sergesha
    Аудио #3: AC-3, 48.0 kHz, 6 ch, 640 kb/s, CBR (Ukrainian) | Дублированный
    Аудио #4: AC-3, 48.0 kHz, 6 ch, 640 kb/s, CBR (Russian) | (DVO - Петр Гланц и Татьяна Казакова)
    Аудио #5: AC-3, 48.0 kHz, 6 ch, 640 kb/s, CBR (Russian) | (AVO - Андрей Гаврилов - ранний (1994))
    Аудио #6: AC-3, 48.0 kHz, 6 ch, 640 kb/s, CBR (Russian) | (AVO - Андрей Гаврилов - поздний (2008))
    Аудио #7: AC-3, 48.0 kHz, 6 ch, 640 kb/s, CBR (Russian) | (AVO - Юрий Живов)
    Аудио #8: TrueHD TrueHD+Atmos / TrueHD, / 48.0 kHz, Object Based / 8 ch, 8 910 kb/s, VBR (English)
    Аудио #9: AC-3, 48.0 kHz, 6 ch, 640 kb/s, CBR (English)

    Субтитры: Русские, английские



    MI


    Общее
    Уникальный идентификатор                 : 253276883599006768097580541299096040238 (0xBE8B5A7AADF44E9BA674DF9200F4332E)
    Полное имя                               : The.Lion.King.1994.2160p.UHD.BDRemux.HDR.HEVC.IVA(RUS.UKR.ENG).ExKinoRay.mkv
    Формат                                   : Matroska
    Версия формата                           : Version 4
    Размер файла                             : 56,0 Гбайт
    Продолжительность                        : 1 ч. 28 м.
    Режим общего битрейта                    : Переменный
    Общий поток                              : 90,6 Мбит/сек
    Название фильма                          : Король лев / The Lion King ( 1994 ) UHD BDRemux | HDR, 4K | IVA(RUS.UKR.ENG) | ExKinoRay
    Дата кодирования                         : UTC 2018-12-03 07:19:12
    Программа кодирования                    : mkvmerge v29.0.0 ("Like It Or Not") 64-bit
    Библиотека кодирования                   : libebml v1.3.6 + libmatroska v1.4.9
    Обложка                                  : Yes
    Attachments                              : cover

    Видео
    Идентификатор                            : 1
    Формат                                   : HEVC
    Формат/Информация                        : High Efficiency Video Coding
    Коммерческое название                    : HDR10
    Профиль формата                          : Main 10@L5.1@High
    Идентификатор кодека                     : V_MPEGH/ISO/HEVC
    Продолжительность                        : 1 ч. 28 м.
    Битрейт                                  : 72,0 Мбит/сек
    Ширина                                   : 3840 пикселей
    Высота                                   : 2160 пикселей
    Соотношение сторон                       : 16:9
    Режим частоты кадров                     : Постоянный
    Частота кадров                           : 23,976 (24000/1001) кадра/сек
    Цветовое пространство                    : YUV
    Субдискретизация насыщенности            : 4:2:0 (Type 2)
    Битовая глубина                          : 10 бит
    Бит/(Пиксели*Кадры)                      : 0.362
    Размер потока                            : 44,5 Гбайт (79%)
    Библиотека кодирования                   : ATEME Titan File 3.8.16 (4.8.16.0)      
    Язык                                     : English
    Default                                  : Да
    Forced                                   : Нет
    Цветовой диапазон                        : Limited
    Основные цвета                           : BT.2020
    Характеристики трансфера                 : PQ
    Коэффициенты матрицы                     : BT.2020 non-constant
    MasteringDisplay_ColorPrimaries          : Display P3
    MasteringDisplay_Luminance               : min: 0.0001 cd/m2, max: 1000 cd/m2

    Аудио #1
    Идентификатор                            : 2
    Формат                                   : AC-3
    Формат/Информация                        : Audio Coding 3
    Коммерческое название                    : Dolby Digital
    Идентификатор кодека                     : A_AC3
    Продолжительность                        : 1 ч. 28 м.
    Вид битрейта                             : Постоянный
    Битрейт                                  : 640 Кбит/сек
    Каналы                                   : 6 каналов
    Channel layout                           : L R C LFE Ls Rs
    Частота                                  : 48,0 КГц
    Частота кадров                           : 31,250 кадров/сек (1536 SPF)
    Битовая глубина                          : 16 бит
    Метод сжатия                             : С потерями
    Задержка видео                           : -1 мс.
    Размер потока                            : 405 Мбайт (1%)
    Заголовок                                : Дублированный
    Язык                                     : Russian
    ServiceKind                      : Complete Main
    Default                                  : Да
    Forced                                   : Нет

    Аудио #2
    Идентификатор                            : 3
    Формат                                   : DTS XLL
    Формат/Информация                        : Digital Theater Systems
    Коммерческое название                    : DTS-HD Master Audio
    Идентификатор кодека                     : A_DTS
    Продолжительность                        : 1 ч. 28 м.
    Вид битрейта                             : Переменный
    Битрейт                                  : 5257 Кбит/сек
    Каналы                                   : 8 каналов
    Channel layout                           : C L R LFE Lb Rb Lss Rss
    Частота                                  : 48,0 КГц
    Частота кадров                           : 93,750 кадра/сек (512 SPF)
    Битовая глубина                          : 24 бит
    Метод сжатия                             : Без потерь
    Задержка видео                           : -1 мс.
    Размер потока                            : 3,25 Гбайт (6%)
    Заголовок                                : Дублированный*
    Язык                                     : Russian
    Default                                  : Нет
    Forced                                   : Нет

    Аудио #3
    Идентификатор                            : 4
    Формат                                   : AC-3
    Формат/Информация                        : Audio Coding 3
    Коммерческое название                    : Dolby Digital
    Идентификатор кодека                     : A_AC3
    Продолжительность                        : 1 ч. 28 м.
    Вид битрейта                             : Постоянный
    Битрейт                                  : 640 Кбит/сек
    Каналы                                   : 6 каналов
    Channel layout                           : L R C LFE Ls Rs
    Частота                                  : 48,0 КГц
    Частота кадров                           : 31,250 кадров/сек (1536 SPF)
    Битовая глубина                          : 16 бит
    Метод сжатия                             : С потерями
    Задержка видео                           : -1 мс.
    Размер потока                            : 405 Мбайт (1%)
    Заголовок                                : Дублированный - BD CEE (corrected)
    Язык                                     : Ukrainian
    ServiceKind                      : Complete Main
    Default                                  : Нет
    Forced                                   : Нет

    Аудио #4
    Идентификатор                            : 5
    Формат                                   : AC-3
    Формат/Информация                        : Audio Coding 3
    Коммерческое название                    : Dolby Digital
    Идентификатор кодека                     : A_AC3
    Продолжительность                        : 1 ч. 28 м.
    Вид битрейта                             : Постоянный
    Битрейт                                  : 640 Кбит/сек
    Каналы                                   : 6 каналов
    Channel layout                           : L R C LFE Ls Rs
    Частота                                  : 48,0 КГц
    Частота кадров                           : 31,250 кадров/сек (1536 SPF)
    Битовая глубина                          : 16 бит
    Метод сжатия                             : С потерями
    Задержка видео                           : -1 мс.
    Размер потока                            : 405 Мбайт (1%)
    Заголовок                                : DVO, Петр Гланц и Татьяна Казакова
    Язык                                     : Russian
    ServiceKind                      : Complete Main
    Default                                  : Нет
    Forced                                   : Нет

    Аудио #5
    Идентификатор                            : 6
    Формат                                   : AC-3
    Формат/Информация                        : Audio Coding 3
    Коммерческое название                    : Dolby Digital
    Идентификатор кодека                     : A_AC3
    Продолжительность                        : 1 ч. 28 м.
    Вид битрейта                             : Постоянный
    Битрейт                                  : 640 Кбит/сек
    Каналы                                   : 6 каналов
    Channel layout                           : L R C LFE Ls Rs
    Частота                                  : 48,0 КГц
    Частота кадров                           : 31,250 кадров/сек (1536 SPF)
    Битовая глубина                          : 16 бит
    Метод сжатия                             : С потерями
    Задержка видео                           : -1 мс.
    Размер потока                            : 405 Мбайт (1%)
    Заголовок                                : AVO, Андрей Гаврилов (1994)
    Язык                                     : Russian
    ServiceKind                      : Complete Main
    Default                                  : Нет
    Forced                                   : Нет

    Аудио #6
    Идентификатор                            : 7
    Формат                                   : AC-3
    Формат/Информация                        : Audio Coding 3
    Коммерческое название                    : Dolby Digital
    Идентификатор кодека                     : A_AC3
    Продолжительность                        : 1 ч. 28 м.
    Вид битрейта                             : Постоянный
    Битрейт                                  : 640 Кбит/сек
    Каналы                                   : 6 каналов
    Channel layout                           : L R C LFE Ls Rs
    Частота                                  : 48,0 КГц
    Частота кадров                           : 31,250 кадров/сек (1536 SPF)
    Битовая глубина                          : 16 бит
    Метод сжатия                             : С потерями
    Задержка видео                           : -1 мс.
    Размер потока                            : 405 Мбайт (1%)
    Заголовок                                : AVO, Андрей Гаврилов (2008)
    Язык                                     : Russian
    ServiceKind                      : Complete Main
    Default                                  : Нет
    Forced                                   : Нет

    Аудио #7
    Идентификатор                            : 8
    Формат                                   : AC-3
    Формат/Информация                        : Audio Coding 3
    Коммерческое название                    : Dolby Digital
    Идентификатор кодека                     : A_AC3
    Продолжительность                        : 1 ч. 28 м.
    Вид битрейта                             : Постоянный
    Битрейт                                  : 640 Кбит/сек
    Каналы                                   : 6 каналов
    Channel layout                           : L R C LFE Ls Rs
    Частота                                  : 48,0 КГц
    Частота кадров                           : 31,250 кадров/сек (1536 SPF)
    Битовая глубина                          : 16 бит
    Метод сжатия                             : С потерями
    Задержка видео                           : -1 мс.
    Размер потока                            : 405 Мбайт (1%)
    Заголовок                                : AVO, Юрий Живов
    Язык                                     : Russian
    ServiceKind                      : Complete Main
    Default                                  : Нет
    Forced                                   : Нет

    Аудио #8
    Идентификатор                            : 9
    Формат                                   : MLP FBA 16-ch
    Формат/Информация                        : Meridian Lossless Packing FBA with 16-channel presentation
    Коммерческое название                    : Dolby TrueHD with Dolby Atmos
    Идентификатор кодека                     : A_TRUEHD
    Продолжительность                        : 1 ч. 28 м.
    Вид битрейта                             : Переменный
    Битрейт                                  : 8910 Кбит/сек
    Максимальный битрейт                     : 11,8 Мбит/сек
    Каналы                                   : 8 каналов
    Channel layout                           : L R C LFE Ls Rs Lb Rb
    Частота                                  : 48,0 КГц
    Частота кадров                           : 1200,000 кадров/сек (40 SPF)
    Метод сжатия                             : Без потерь
    Задержка видео                           : 32 мс.
    Размер потока                            : 5,50 Гбайт (10%)
    Заголовок                                : Original
    Язык                                     : English
    Default                                  : Нет
    Forced                                   : Нет
    Number of dynamic objects                : 13
    Bed channel count                        : 1 канал
    Bed channel configuration                : LFE

    Аудио #9
    Идентификатор                            : 10
    Формат                                   : AC-3
    Формат/Информация                        : Audio Coding 3
    Коммерческое название                    : Dolby Digital
    Идентификатор кодека                     : A_AC3
    Продолжительность                        : 1 ч. 28 м.
    Вид битрейта                             : Постоянный
    Битрейт                                  : 640 Кбит/сек
    Каналы                                   : 6 каналов
    Channel layout                           : L R C LFE Ls Rs
    Частота                                  : 48,0 КГц
    Частота кадров                           : 31,250 кадров/сек (1536 SPF)
    Битовая глубина                          : 16 бит
    Метод сжатия                             : С потерями
    Задержка видео                           : 31 мс.
    Размер потока                            : 405 Мбайт (1%)
    Заголовок                                : Original, AC3 Core
    Язык                                     : English
    ServiceKind                      : Complete Main
    Default                                  : Нет
    Forced                                   : Нет

    Текст #1
    Идентификатор                            : 11
    Формат                                   : UTF-8
    Идентификатор кодека                     : S_TEXT/UTF8
    Идентификатор кодека/Информация          : UTF-8 Plain Text
    Продолжительность                        : 1 ч. 23 м.
    Битрейт                                  : 0 бит/сек
    ElementCount                             : 4
    Размер потока                            : 203 байт (0%)
    Заголовок                                : Forced
    Язык                                     : Russian
    Default                                  : Да
    Forced                                   : Да

    Текст #2
    Идентификатор                            : 12
    Формат                                   : UTF-8
    Идентификатор кодека                     : S_TEXT/UTF8
    Идентификатор кодека/Информация          : UTF-8 Plain Text
    Продолжительность                        : 1 ч. 26 м.
    Битрейт                                  : 73 бит/сек
    ElementCount                             : 1154
    Размер потока                            : 46,5 Кбайт (0%)
    Заголовок                                : Full
    Язык                                     : Russian
    Default                                  : Нет
    Forced                                   : Нет

    Текст #3
    Идентификатор                            : 13
    Формат                                   : UTF-8
    Идентификатор кодека                     : S_TEXT/UTF8
    Идентификатор кодека/Информация          : UTF-8 Plain Text
    Продолжительность                        : 1 ч. 23 м.
    Битрейт                                  : 0 бит/сек
    ElementCount                             : 4
    Размер потока                            : 207 байт (0%)
    Заголовок                                : Forced
    Язык                                     : Ukrainian
    Default                                  : Нет
    Forced                                   : Да

    Текст #4
    Идентификатор                            : 14
    Формат                                   : UTF-8
    Идентификатор кодека                     : S_TEXT/UTF8
    Идентификатор кодека/Информация          : UTF-8 Plain Text
    Продолжительность                        : 1 ч. 26 м.
    Битрейт                                  : 86 бит/сек
    ElementCount                             : 1141
    Размер потока                            : 55,0 Кбайт (0%)
    Заголовок                                : Full
    Язык                                     : Ukrainian
    Default                                  : Нет
    Forced                                   : Нет

    Текст #5
    Идентификатор                            : 15
    Формат                                   : UTF-8
    Идентификатор кодека                     : S_TEXT/UTF8
    Идентификатор кодека/Информация          : UTF-8 Plain Text
    Продолжительность                        : 1 ч. 22 м.
    Битрейт                                  : 59 бит/сек
    ElementCount                             : 1179
    Размер потока                            : 35,9 Кбайт (0%)
    Заголовок                                : Full
    Язык                                     : English
    Default                                  : Нет
    Forced                                   : Нет

    Текст #6
    Идентификатор                            : 16
    Формат                                   : UTF-8
    Идентификатор кодека                     : S_TEXT/UTF8
    Идентификатор кодека/Информация          : UTF-8 Plain Text
    Продолжительность                        : 1 ч. 27 м.
    Битрейт                                  : 61 бит/сек
    ElementCount                             : 1330
    Размер потока                            : 39,2 Кбайт (0%)
    Заголовок                                : SDH
    Язык                                     : English
    Default                                  : Нет
    Forced                                   : Нет

    Меню
    00:00:00.000                             : :Глава 01
    00:04:40.071                             : :Глава 02
    00:08:10.406                             : :Глава 03
    00:11:28.979                             : :Глава 04
    00:14:09.557                             : :Глава 05
    00:17:51.028                             : :Глава 06
    00:22:54.748                             : :Глава 07
    00:25:36.117                             : :Глава 08
    00:30:24.197                             : :Глава 09
    00:35:52.150                             : :Глава 10
    00:40:14.078                             : :Глава 11
    00:41:14.430                             : :Глава 12
    00:44:16.945                             : :Глава 13
    00:48:20.564                             : :Глава 14
    00:50:07.212                             : :Глава 15
    00:53:14.774                             : :Глава 16
    00:57:50.842                             : :Глава 17
    01:00:56.569                             : :Глава 18
    01:02:32.331                             : :Глава 19
    01:08:49.625                             : :Глава 20
    01:12:41.023                             : :Глава 21
    01:16:42.306                             : :Глава 22
    01:20:45.131                             : :Глава 23
    01:23:23.873                             : :Глава 24

    Свернуть
    Похожие раздачи Искать похожие
    Инструкция по скачиванию
     1  Качаем uTorrent версии 2.0 и выше
     2  После установки, жмем выше под постером на ссылку Скачать [MediaGet] или Скачать .torrent
     3  Открываем скачанный файл через соответствующий клиент: MediaGet или uTorrent
     4  Ждем пока подключатся участники
     5  Качаем
    Комментарии о  Король Лев / The Lion King | BDRemux 
    Ближайшее в кино
    Вверх