• Игры для PS4
  • Игры для PS3
  • Игры для XBOX360
  • Игры для PC
  • Игры для PS2
  • Игры для PSP
  • Для телефонов
  • Музыка
  • Книги / Журналы
  • Обои
  • Опрос
    Удобен ли сайт в использовании?
      0
    • Очень удобен, все понятно1,1,false,300,full
    • Удобен1,2,false,300,full
    • Средне1,3,false,300,full
    • Неудобен, трудно ориентироваться1,4,false,300,full
    • Совсем неудобен1,5,false,300,full
    Статистика
    Всего онлайн -
    Гостей -
    Пользователей -
    Короли трекера
    Благодарности () Закрыть
    Информация о фильме
    Название: Красавица для чудовища
    Оригинальное название: Mary Shelley
    Год выхода: 2017
    Жанр: Драма, мелодрама, биография
    Режиссер: Хайфа Аль-Мансур
    В ролях: Элль Фэннинг, Бен Харди, Мэйси Уильямс, Бел Паули, Дуглас Бут, Джоанн Фроггатт, Том Старридж, Стивен Диллэйн, Хью О’Конор, Сиара Чартерис



    О фильме: Что сподвигло нежную юную девушку к написанию «Франкенштейна…» - мрачного, энергетически необыкновенно сильного произведения, давшего начало жанру научной фантастики в мировой литературе? Биографическая картина повествует о наполненной драматическими событиями жизни знаменитой писательницы Мэри Шелли и ее страстной любви к одному из величайших английских поэтов.

    Страна: Великобритания, Люксембург, США
    Студия: BFI Film Fund, Gidden Media, HanWay Films
    Продолжительность: 02:00:40
    Перевод: Профессиональный многоголосый | iTunes

    Качество: BDRemux 1080p
    Видео: MPEG-4 AVC, 1920x1080, 15.1 Mbit/s, 24 fps
    Звук:
    Аудио #01: 48 kHz, AC3, 5.1, 384 Kbps | iTunes | RUS |[img]http://img11.lostpic.net/2018/08/13/7c2ebc4025c59bfa2d99e99b51a513dc.png[/img]
    Аудио #02: 48 kHz, DTS-HD MA, 5.1, 3209 Kbps | Оригинал |  ENG |[img]http://img11.lostpic.net/2018/08/13/9611f09865bbb093dacbc8ec792c4ceb.png[/img]
    Субтитры: Английские

    [img]http://img14.lostpic.net/2018/12/03/bbc7832ad7037d3141fccd8cba042004.png[/img][img]http://img14.lostpic.net/2018/12/03/15a9b0212c5b070933af179adf048744.png[/img][img]http://img14.lostpic.net/2018/12/03/393e562f3a8817f56f28eff35ae9766c.png[/img][img]http://img14.lostpic.net/2018/12/03/e1f1832d35c31f681075e7abd65f0244.png[/img][img]http://img14.lostpic.net/2018/12/03/099a9357dce7ccb9740777388871771f.png[/img]

    MI
    General
    Unique ID                   : 130160955224861694871538687179302544236 (0x61EC168F68EC4E07C82F2688F75EA36C)
    Complete name               : D:Video111Mary.Shelley.2017.BDREMUX.1080p.selezen.mkv
    Format                      : Matroska
    Format version              : Version 4
    File size                   : 15.8 GiB
    Duration                    : 2 h 0 min
    Overall bit rate mode       : Variable
    Overall bit rate            : 18.7 Mb/s
    Movie name                  : Mary Shelley 2017 from селезень
    Encoded date                : UTC 2018-12-03 09:12:44
    Writing application         : mkvmerge v29.0.0 ("Like It Or Not") 64-bit
    Writing library             : libebml v1.3.6 + libmatroska v1.4.9

    Video
    ID                          : 1
    Format                      : AVC
    Format/Info                 : Advanced Video Codec
    Format profile              : High@L4.1
    Format settings             : CABAC / 4 Ref Frames
    Format settings, CABAC      : Yes
    Format settings, ReFrames   : 4 frames
    Codec ID                    : V_MPEG4/ISO/AVC
    Duration                    : 2 h 0 min
    Bit rate mode               : Variable
    Bit rate                    : 15.1 Mb/s
    Maximum bit rate            : 20.0 Mb/s
    Width                       : 1 920 pixels
    Height                      : 1 080 pixels
    Display aspect ratio        : 16:9
    Frame rate mode             : Constant
    Frame rate                  : 24.000 FPS
    Standard                    : NTSC
    Color space                 : YUV
    Chroma subsampling          : 4:2:0
    Bit depth                   : 8 bits
    Scan type                   : Progressive
    Bits/(Pixel*Frame)          : 0.303
    Stream size                 : 12.7 GiB (81%)
    Language                    : English
    Default                     : Yes
    Forced                      : No
    Color range                 : Limited
    Color primaries             : BT.709
    Transfer characteristics    : BT.709
    Matrix coefficients         : BT.709

    Audio #1
    ID                          : 2
    Format                      : AC-3
    Format/Info                 : Audio Coding 3
    Commercial name             : Dolby Digital
    Codec ID                    : A_AC3
    Duration                    : 2 h 0 min
    Bit rate mode               : Constant
    Bit rate                    : 384 kb/s
    Channel(s)                  : 6 channels
    Channel layout              : L R C LFE Ls Rs
    Sampling rate               : 48.0 kHz
    Frame rate                  : 31.250 FPS (1536 SPF)
    Bit depth                   : 16 bits
    Compression mode            : Lossy
    Stream size                 : 331 MiB (2%)
    Title                       : iTunes
    Language                    : Russian
    Service kind                : Complete Main
    Default                     : Yes
    Forced                      : Yes

    Audio #2
    ID                          : 3
    Format                      : DTS XLL
    Format/Info                 : Digital Theater Systems
    Commercial name             : DTS-HD Master Audio
    Codec ID                    : A_DTS
    Duration                    : 2 h 0 min
    Bit rate mode               : Variable
    Bit rate                    : 3 209 kb/s
    Channel(s)                  : 6 channels
    Channel layout              : C L R Ls Rs LFE
    Sampling rate               : 48.0 kHz
    Frame rate                  : 93.750 FPS (512 SPF)
    Bit depth                   : 24 bits
    Compression mode            : Lossless
    Stream size                 : 2.71 GiB (17%)
    Title                       : Original
    Language                    : English
    Default                     : No
    Forced                      : No

    Text #1
    ID                          : 4
    Format                      : UTF-8
    Codec ID                    : S_TEXT/UTF8
    Codec ID/Info               : UTF-8 Plain Text
    Duration                    : 1 h 51 min
    Bit rate                    : 53 b/s
    Count of elements           : 1331
    Stream size                 : 43.4 KiB (0%)
    Title                       : Full
    Language                    : English
    Default                     : No
    Forced                      : No

    Text #2
    ID                          : 5
    Format                      : UTF-8
    Codec ID                    : S_TEXT/UTF8
    Codec ID/Info               : UTF-8 Plain Text
    Duration                    : 1 h 52 min
    Bit rate                    : 59 b/s
    Count of elements           : 1351
    Stream size                 : 48.9 KiB (0%)
    Title                       : SDH
    Language                    : English
    Default                     : No
    Forced                      : No

    Menu
    00:00:00.000                : :Глава 01
    00:16:29.958                : :Глава 02
    00:30:50.708                : :Глава 03
    00:43:37.583                : :Глава 04
    00:57:11.208                : :Глава 05
    01:11:40.042                : :Глава 06
    01:24:27.042                : :Глава 07
    01:39:28.000                : :Глава 08Свернуть


    [img]http://lostpix.com/img/2017-03/22/pa3kns75lpl0e564ik1il8ow9.gif[/img]
    Похожие раздачи Искать похожие
    Инструкция по скачиванию
     1  Качаем uTorrent версии 2.0 и выше
     2  После установки, жмем выше под постером на ссылку Скачать [MediaGet] или Скачать .torrent
     3  Открываем скачанный файл через соответствующий клиент: MediaGet или uTorrent
     4  Ждем пока подключатся участники
     5  Качаем
    Комментарии о  Красавица для чудовища / Mary Shelley | BDRemux 1080p 
    Ближайшее в кино
    Вверх