• Игры для PS4
  • Игры для PS3
  • Игры для XBOX360
  • Игры для PC
  • Игры для PS2
  • Игры для PSP
  • Для телефонов
  • Музыка
  • Книги / Журналы
  • Обои
  • Опрос
    Удобен ли сайт в использовании?
      0
    • Очень удобен, все понятно1,1,false,300,full
    • Удобен1,2,false,300,full
    • Средне1,3,false,300,full
    • Неудобен, трудно ориентироваться1,4,false,300,full
    • Совсем неудобен1,5,false,300,full
    Статистика
    Всего онлайн -
    Гостей -
    Пользователей -
    Короли трекера
    Благодарности () Закрыть
    Информация о фильме
    Название: Клятва мести
    Оригинальное название: Sworn To Justice
    Год выхода: 1996
    Жанр: боевик, драма
    Режиссер: Пол Маслак
    В ролях: Синтия Ротрок, Тони Ло Бьянко, Курт МакКинни, Брэд Дуриф, Мако, Уолтер Кениг, Кенн Скотт, Кэти Митчелл, Мэри-Маргарет Хьюмс, Макс Тэйер, Стивен Квадрос, Винс Мурдокко, Йен Джэклин, Карен Иден, Эрик Ли, Сид Шэм, Кристофер Майкл, Чак Борден

    О фильме:
    Только месть сможет унять боль утраты близких ей людей. Неумолимая мстительница становится совершенным орудием возмездия. Лишь она способна найти и покарать убийц. Правосудие неудержимо влечет ее за границы закона...

    [img]http://imdb.snick.ru/ratefor/02/tt0117803.png[/img]

    Страна: США
    Продолжительность: 01:37:20
    Перевод: Авторский (одноголосый закадровый) Михаил Иванов

    Файл
    Кодек: x.264
    Качество: BDRip-AVC | исх. BDRemux 1080p
    Видео: h264 / 2350 kbps / 1024x576 / 23.976 fps
    Звук: 48 kHz / 192 kbps
    Субтитры: Нет

    log

    x264 [info]: frame I:2387  Avg QP:13.67  size: 50208
    x264 [info]: frame P:22186 Avg QP:15.94  size: 23112
    x264 [info]: frame B:115454 Avg QP:17.71  size:  9343
    x264 [info]: consecutive B-frames:  7.7%  0.4%  0.6%  0.6%  0.8%  0.9%  1.2%  1.2%  1.8% 84.8%
    x264 [info]: mb I  I16..4:  5.3% 84.9%  9.8%
    x264 [info]: mb P  I16..4:  1.3% 12.8%  1.0%  P16..4: 32.7% 39.7% 10.0%  0.0%  0.0%    skip: 2.4%
    x264 [info]: mb B  I16..4:  0.2%  1.3%  0.1%  B16..8: 37.2% 25.2%  3.8%  direct: 5.3%  skip:27.0%  L0:48.0% L1:44.5% BI: 7.5%
    x264 [info]: 8x8 transform intra:84.2% inter:59.9%
    x264 [info]: direct mvs  spatial:99.6% temporal:0.4%
    x264 [info]: coded y,uvDC,uvAC intra: 84.9% 77.7% 56.8% inter: 25.5% 21.5% 7.7%
    x264 [info]: i16 v,h,dc,p: 39% 11%  5% 45%
    x264 [info]: i8 v,h,dc,ddl,ddr,vr,hd,vl,hu:  9%  6%  8% 10% 14% 14% 12% 13% 13%
    x264 [info]: i4 v,h,dc,ddl,ddr,vr,hd,vl,hu: 10%  7%  9% 10% 14% 14% 12% 11% 12%
    x264 [info]: i8c dc,h,v,p: 42% 26% 18% 14%
    x264 [info]: Weighted P-Frames: Y:2.8% UV:0.9%
    x264 [info]: ref P L0: 48.1%  5.0% 18.5%  7.8%  6.0%  4.2%  3.5%  1.9%  1.7%  1.4%  1.3%  0.5%  0.0%
    x264 [info]: ref B L0: 68.0% 13.6%  7.4%  3.5%  2.5%  2.0%  1.5%  0.9%  0.5%  0.1%
    x264 [info]: ref B L1: 90.1%  9.9%
    x264 [info]: kb/s:2344.06
    Свернуть


    MediaInfo

    Общее
    Уникальный идентификатор                 : 192324878893965782593080964243852569182 (0x90B06CA0F9197AD0B407FB667ABB2A5E)
    Полное имя                               : E:TestSworn.to.Justice.1996.BDRip-AVC.by.Alukard14.mkv
    Формат                                   : Matroska
    Версия формата                           : Version 2
    Размер файла                             : 1,73 Гбайт
    Продолжительность                        : 1 ч. 37 м.
    Общий поток                              : 2538 Кбит/сек
    Дата кодирования                         : UTC 2018-12-03 00:57:58
    Программа кодирования                    : mkvmerge v6.9.1 ("Blue Panther") 32bit built on Apr 18 2014 18:15:44
    Библиотека кодирования                   : libebml v1.3.0 + libmatroska v1.4.1

    Видео
    Идентификатор                            : 1
    Формат                                   : AVC
    Формат/Информация                        : Advanced Video Codec
    Профиль формата                          : High@L4.1
    Настройки формата                        : CABAC / 11 Ref Frames
    Параметр CABAC формата                   : Да
    Параметр RefFrames формата               : 11 кадров
    Идентификатор кодека                     : V_MPEG4/ISO/AVC
    Продолжительность                        : 1 ч. 37 м.
    Битрейт                                  : 2350 Кбит/сек
    Ширина                                   : 1024 пикселя
    Высота                                   : 576 пикселей
    Соотношение сторон                       : 16:9
    Режим частоты кадров                     : Постоянный
    Частота кадров                           : 23,976 кадра/сек
    Цветовое пространство                    : YUV
    Субдискретизация насыщенности            : 4:2:0
    Битовая глубина                          : 8 бит
    Тип развёртки                            : Прогрессивная
    Бит/(Пиксели*Кадры)                      : 0.166
    Размер потока                            : 1,56 Гбайт (90%)
    Библиотека кодирования                   : x264 core 148 r2638 7599210
    Настройки программы                      : cabac=1 / ref=11 / deblock=1:-3:-3 / analyse=0x3:0x113 / me=umh / subme=11 / psy=1 / psy_rd=1.00:0.00 / mixed_ref=1 / me_range=48 / chroma_me=1 / trellis=2 / 8x8dct=1 / cqm=0 / deadzone=21,11 / fast_pskip=0 / chroma_qp_offset=-2 / threads=9 / lookahead_threads=1 / sliced_threads=0 / nr=0 / decimate=0 / interlaced=0 / bluray_compat=0 / constrained_intra=0 / bframes=9 / b_pyramid=2 / b_adapt=0 / b_bias=0 / direct=3 / weightb=1 / open_gop=0 / weightp=2 / keyint=240 / keyint_min=24 / scenecut=40 / intra_refresh=0 / rc_lookahead=40 / rc=2pass / mbtree=0 / bitrate=2350 / ratetol=1.0 / qcomp=0.60 / qpmin=0 / qpmax=69 / qpstep=2 / cplxblur=20.0 / qblur=0.5 / vbv_maxrate=14000 / vbv_bufsize=14000 / nal_hrd=none / filler=0 / ip_ratio=1.40 / pb_ratio=1.30 / aq=1:1.00
    Default                                  : Да
    Forced                                   : Нет

    Аудио
    Идентификатор                            : 2
    Формат                                   : AC-3
    Формат/Информация                        : Audio Coding 3
    Идентификатор кодека                     : A_AC3
    Продолжительность                        : 1 ч. 37 м.
    Вид битрейта                             : Постоянный
    Битрейт                                  : 192 Кбит/сек
    Каналы                                   : 2 канала
    Расположение каналов                     : Front: L R
    Частота                                  : 48,0 КГц
    Частота кадров                           : 31,250 кадров/сек (1536 SPF)
    Битовая глубина                          : 16 бит
    Метод сжатия                             : С потерями
    Размер потока                            : 134 Мбайт (8%)
    Default                                  : Да
    Forced                                   : Нет
    Свернуть


    Похожие раздачи Искать похожие
    Инструкция по скачиванию
     1  Качаем uTorrent версии 2.0 и выше
     2  После установки, жмем выше под постером на ссылку Скачать [MediaGet] или Скачать .torrent
     3  Открываем скачанный файл через соответствующий клиент: MediaGet или uTorrent
     4  Ждем пока подключатся участники
     5  Качаем
    Комментарии о  Клятва мести / Sworn To Justice | BDRip-AVC 
    Ближайшее в кино
    Вверх