• Игры для PS4
  • Игры для PS3
  • Игры для XBOX360
  • Игры для PC
  • Игры для PS2
  • Игры для PSP
  • Для телефонов
  • Музыка
  • Книги / Журналы
  • Обои
  • Опрос
    Откуда Вы о нас узнали?
      0
    • От знакомых2,1,false,300,full
    • Из социальных сетей2,2,false,300,full
    • Из поисковых систем2,3,false,300,full
    • Другое2,4,false,300,full
    Статистика
    Всего онлайн -
    Гостей -
    Пользователей -
    Короли трекера
    Благодарности () Закрыть
    Название: Баттл
    Оригинальное название: Battle
    Год выпуска: 2018
    Жанр:  Драма
    Выпущено: Норвегия, Friland,Storm Films,Adomeit Film
    Режиссер: Катарина Лаунинг
    В ролях: Лиза Тейге, Вебьёрн Энгер, Карен-Лиза Мюнстер, Стиг Р. Амдам, Фабиан Свегаард Тапиа, Софи Альбертина Фосс, Морад Азиман, Насилие Мариуса

    О фильме: После того как отец Амалии становится банкротом, богатая жизнь молодой танцовщицы рушится. Но затем всё меняется, когда она встречает молодого хип-хоп танцора Микаэля.

    [img]http://imdb.snick.ru/ratefor/02/tt6854672.png[/img]

    Техданные
    Качество: WEBRip (1080p)
    Видео: MPEG-4 AVC, 3300 Kb/s, 1920x800, 25.000 FPS
    Аудио: AC3, 6 ch, 384 Кбит/с
    Продолжительность: 01:38:40
    Перевод: Любительский двухголосый закадровый (LakeFilms)
    Присутствует реклама!



    MI
    General
    Unique ID                                : 331674480029733686535202746934594907926 (0xF9862E68E1220E373AB38378EF902F16)
    Complete name                            : E:Battle.2018.WEBRip.1080p.LakeFilms
    Format                                   : Matroska
    Format version                           : Version 4 / Version 2
    File size                                : 2.53 GiB
    Duration                                 : 1h 38mn
    Overall bit rate                         : 3 670 Kbps
    Writing application                      : XviD4PSP 7.0.459 DAILY
    Writing library                          : Lavf57.71.100
    ENCODING_INFO                            : MATROSKA,WEBM > MKV / H264 > X264 ABR 3300kbps Very Fast / AAC-LC > AC3 CBR 384kbps

    Video
    ID                                       : 1
    Format                                   : AVC
    Format/Info                              : Advanced Video Codec
    Format profile                           : High@L4.0
    Format settings, CABAC                   : Yes
    Format settings, ReFrames                : 4 frames
    Codec ID                                 : V_MPEG4/ISO/AVC
    Duration                                 : 1h 38mn
    Bit rate                                 : 3 300 Kbps
    Width                                    : 1 920 pixels
    Height                                   : 800 pixels
    Display aspect ratio                     : 2.40:1
    Frame rate mode                          : Constant
    Frame rate                               : 25.000 fps
    Color space                              : YUV
    Chroma subsampling                       : 4:2:0
    Bit depth                                : 8 bits
    Scan type                                : Progressive
    Bits/(Pixel*Frame)                       : 0.086
    Stream size                              : 2.21 GiB (88%)
    Writing library                          : x264 core 157 r2901M 7d0ff22
    Encoding settings                        : cabac=1 / ref=1 / deblock=1:-2:-2 / analyse=0x3:0x113 / me=hex / subme=2 / psy=1 / psy_rd=1.00:0.00 / mixed_ref=0 / me_range=16 / chroma_me=1 / trellis=0 / 8x8dct=1 / cqm=0 / deadzone=21,11 / fast_pskip=1 / chroma_qp_offset=0 / threads=5 / lookahead_threads=1 / sliced_threads=0 / nr=0 / decimate=1 / interlaced=0 / bluray_compat=0 / constrained_intra=0 / bframes=3 / b_pyramid=2 / b_adapt=1 / b_bias=0 / direct=1 / weightb=1 / open_gop=0 / weightp=1 / keyint=250 / keyint_min=25 / scenecut=40 / intra_refresh=0 / rc_lookahead=10 / rc=abr / mbtree=1 / bitrate=3300 / ratetol=1.0 / qcomp=0.60 / qpmin=0 / qpmax=69 / qpstep=4 / ip_ratio=1.40 / aq=1:1.00
    Default                                  : Yes
    Forced                                   : No

    Audio
    ID                                       : 2
    Format                                   : AC-3
    Format/Info                              : Audio Coding 3
    Mode extension                           : CM (complete main)
    Format settings, Endianness              : Big
    Codec ID                                 : A_AC3
    Duration                                 : 1h 38mn
    Bit rate mode                            : Constant
    Bit rate                                 : 384 Kbps
    Channel(s)                               : 6 channels
    Channel positions                        : Front: L C R, Side: L R, LFE
    Sampling rate                            : 48.0 KHz
    Bit depth                                : 16 bits
    Compression mode                         : Lossy
    Stream size                              : 271 MiB (10%)
    Default                                  : Yes
    Forced                                   : No
    Свернуть
    Похожие раздачи Искать похожие
    Инструкция по скачиванию
     1  Качаем uTorrent версии 2.0 и выше
     2  После установки, жмем выше под постером на ссылку Скачать [MediaGet] или Скачать .torrent
     3  Открываем скачанный файл через соответствующий клиент: MediaGet или uTorrent
     4  Ждем пока подключатся участники
     5  Качаем
    Комментарии о  Баттл / Battle | WEBRip 1080p 
    Ближайшее в кино
    Вверх