• Игры для PS4
  • Игры для PS3
  • Игры для XBOX360
  • Игры для PC
  • Игры для PS2
  • Игры для PSP
  • Для телефонов
  • Музыка
  • Книги / Журналы
  • Обои
  • Опрос
    Откуда Вы о нас узнали?
      0
    • От знакомых2,1,false,300,full
    • Из социальных сетей2,2,false,300,full
    • Из поисковых систем2,3,false,300,full
    • Другое2,4,false,300,full
    Статистика
    Всего онлайн -
    Гостей -
    Пользователей -
    Короли трекера
    Благодарности () Закрыть
    Информация о фильме
    Название: Шёпот
    Оригинальное название: Whispers
    Год выхода: 2015
    Жанр: Ужасы, триллер, мистика, драма
    Режиссер: Тамми Саттон
    В ролях: Барбара Неделякова, Дайан Голднер, Кили Хэзелл, Крэйг Риз, Линн Лаури, Рамон Эстевез, Уилльям Миллсап, Фил Блумберг, Лилия Джонсон, Лейла Геллан, Трэйси Бакли, Эмма Джейкобс, Нина Кейт, Харрисон Кейд, Джон Гулагер, Элисса Даулинг, Эйлин Дитц.

    О фильме: Молодая пара, скорбя о недавней смерти своей дочери, переезжает в сельскую местность, где им не дает покоя их пережитая трагедия, преследующий зловещий призрак и мрачность потустороннего мира.

    [img]http://imdb.snick.ru/ratefor/02/tt1986202.png[/img][img]http://i89.fastpic.ru/big/2017/0502/69/67d521d70873d2399dac9e7d05d0b369.png[/img]

    Страна: Великобритания
    Студия: Tower Bridge Films
    Продолжительность: 01:29:22
    Перевод: Любительский (одноголосый, закадровый) datynet перевод: Куценко
    Субтитры: Нет

    Файл
    Кодек: XviD
    Качество: WEB-DLRip
    Видео: 688x384 (1.79:1), 25 fps, XviD build 73 ~1048 kbps avg, 0.16 bit/pixel
    Звук: 48 kHz, MPEG Layer 3, 2 ch, ~128.00 kbps avg

    MediaInfo
    General
    Complete name               : Whispers.2015.WEB-DLRip.Portablius.avi
    Format                      : AVI
    Format/Info                 : Audio Video Interleave
    File size                   : 748 MiB
    Duration                    : 1 h 28 min
    Overall bit rate            : 1 186 kb/s
    Writing application         : VirtualDubMod 1.5.10.3 | www.virtualdub-fr.org || (build 2550/release)
    Writing library             : VirtualDub build 35491/release

    Video
    ID                          : 0
    Format                      : MPEG-4 Visual
    Format profile              : Advanced Simple@L5
    Format settings, BVOP       : 1
    Format settings, QPel       : No
    Format settings, GMC        : No warppoints
    Format settings, Matrix     : Custom
    Codec ID                    : XVID
    Codec ID/Hint               : XviD
    Duration                    : 1 h 28 min
    Bit rate                    : 1 048 kb/s
    Width                       : 688 pixels
    Height                      : 384 pixels
    Display aspect ratio        : 16:9
    Frame rate                  : 25.000 FPS
    Color space                 : YUV
    Chroma subsampling          : 4:2:0
    Bit depth                   : 8 bits
    Scan type                   : Progressive
    Compression mode            : Lossy
    Bits/(Pixel*Frame)          : 0.159
    Stream size                 : 661 MiB (88%)
    Writing library             : XviD 73

    Audio
    ID                          : 1
    Format                      : MPEG Audio
    Format version              : Version 1
    Format profile              : Layer 3
    Codec ID                    : 55
    Codec ID/Hint               : MP3
    Duration                    : 1 h 28 min
    Bit rate mode               : Constant
    Bit rate                    : 128 kb/s
    Channel(s)                  : 2 channels
    Sampling rate               : 48.0 kHz
    Compression mode            : Lossy
    Stream size                 : 80.7 MiB (11%)
    Alignment                   : Aligned on interleaves
    Interleave, duration        : 40  ms (1.00 video frame)
    Interleave, preload duratio : 504  ms
    Writing library             : LAME3.99r
    Encoding settings           : -m s -V 4 -q 2 -lowpass 17 -b 128

    Свернуть


    Похожие раздачи Искать похожие
    Инструкция по скачиванию
     1  Качаем uTorrent версии 2.0 и выше
     2  После установки, жмем выше под постером на ссылку Скачать [MediaGet] или Скачать .torrent
     3  Открываем скачанный файл через соответствующий клиент: MediaGet или uTorrent
     4  Ждем пока подключатся участники
     5  Качаем
    Комментарии о  Шёпот / Whispers | WEB-DLRip 
    Ближайшее в кино
    Вверх