• Игры для PS4
  • Игры для PS3
  • Игры для XBOX360
  • Игры для PC
  • Игры для PS2
  • Игры для PSP
  • Для телефонов
  • Музыка
  • Книги / Журналы
  • Обои
  • Опрос
    Откуда Вы о нас узнали?
      0
    • От знакомых2,1,false,300,full
    • Из социальных сетей2,2,false,300,full
    • Из поисковых систем2,3,false,300,full
    • Другое2,4,false,300,full
    Статистика
    Всего онлайн -
    Гостей -
    Пользователей -
    Короли трекера
    Благодарности () Закрыть
    Спасибо за вашу службу / Thank You for Your Service

    Год выпуска: 2017
    Страна: США
    Производство: DreamWorks SKG
    Жанр:  Драма, военный, биография

    Режиссёр: Джейсон Холл
    В ролях: Хейли Беннетт, Майлз Теллер, Джо Коул, Эми Шумер, Киша Касл-Хьюз, Керри Кехилл, Кейт Лин Шейл, Эрин Майя Дарк, Брэд Бейер, Джэйсон Уорнер Смит

    Перевод: Профессиональный многоголосый | [HDRezka Studio]
    Субтитры: Русские (полные), Английские (полные)
    Реклама: Отсутствует

    Описание: История о трёх ветеранах иракской войны, которые возвращаются в США, но не могут снова влиться в мирную жизнь. Выжившие на линии огня, они обнаруживают себя под ударом собственных воспоминаний, способных погубить их даже в родных стенах.



    Качество: BDRip-AVC | BDRemux | Thank.You.for.Your.Service.2017.1080p.BluRay.REMUX.AVC.DTS-HD.MA.7.1-FGT
    Продолжительность: 01:48:59

    Формат: MKV
    Видео кодек: MPEG-4 AVC
    Аудио кодек: AC3
    Видео: 1024x428 (2.40:1), 23,976 fps, x264 ~1 824 kbps avg, 0.174 bit/pixel
    Аудио #1: 48 kHz, AC3 Dolby Digital, 2 (L,R) ch, ~192.00 kbps avg | RUS (HDRezka Studio)
    Аудио #2: 48 kHz, AC3 Dolby Digital, 3/2 (L,C,R,l,r) + LFE ch, ~448.00 kbps avg | ENG

    Дата премьеры (мир): 15 октября 2017
    Дата премьеры (РФ):
    Цифровой релиз:

    MediaInfo

    Общее
    Уникальный идентификатор                 : 211372884603940585752365654555092460313 (0x9F04EFD167CC0198CA925365802A2319)
    Полное имя                               : F:OlLanDGroupThank.You.for.Your.Service.2017.BDRip(AVC).OlLanDGroup.mkv
    Формат                                   : Matroska
    Версия формата                           : Version 4 / Version 2
    Размер файла                             : 1,88 Гбайт
    Продолжительность                        : 1 ч. 48 м.
    Общий поток                              : 2466 Кбит/сек
    Название фильма                          : Thank.You.for.Your.Service.2017   #TorpedoUK#
    Дата кодирования                         : UTC 2018-12-03 13:28:06
    Программа кодирования                    : mkvmerge v25.0.0 ("Prog Noir") 64-bit
    Библиотека кодирования                   : libebml v1.3.6 + libmatroska v1.4.9
    Обложка                                  : Yes
    Attachments                              : cover.jpg

    Видео
    Идентификатор                            : 1
    Формат                                   : AVC
    Формат/Информация                        : Advanced Video Codec
    Профиль формата                          : High@L4.1
    Параметр CABAC формата                   : Да
    Параметр ReFrames формата                : 10 кадров
    Идентификатор кодека                     : V_MPEG4/ISO/AVC
    Продолжительность                        : 1 ч. 48 м.
    Битрейт                                  : 1824 Кбит/сек
    Ширина                                   : 1024 пикселя
    Высота                                   : 428 пикселей
    Соотношение сторон                       : 2,40:1
    Режим частоты кадров                     : Постоянный
    Частота кадров                           : 23,976 (24000/1001) кадра/сек
    Цветовое пространство                    : YUV
    Субдискретизация насыщенности            : 4:2:0
    Битовая глубина                          : 8 бит
    Тип развёртки                            : Прогрессивная
    Бит/(Пиксели*Кадры)                      : 0.174
    Размер потока                            : 1,39 Гбайт (74%)
    Библиотека кодирования                   : x264 core 146 r2538 121396c
    Настройки программы                      : cabac=1 / ref=10 / deblock=1:-3:-3 / analyse=0x3:0x113 / me=umh / subme=11 / psy=1 / psy_rd=1.00:0.03 / mixed_ref=1 / me_range=48 / chroma_me=1 / trellis=2 / 8x8dct=1 / cqm=0 / deadzone=21,11 / fast_pskip=1 / chroma_qp_offset=-3 / threads=6 / lookahead_threads=1 / sliced_threads=0 / nr=0 / decimate=1 / interlaced=0 / bluray_compat=0 / constrained_intra=0 / bframes=11 / b_pyramid=2 / b_adapt=2 / b_bias=0 / direct=3 / weightb=1 / open_gop=0 / weightp=2 / keyint=240 / keyint_min=23 / scenecut=40 / intra_refresh=0 / rc_lookahead=40 / rc=2pass / mbtree=0 / bitrate=1824 / ratetol=1.0 / qcomp=0.60 / qpmin=0 / qpmax=69 / qpstep=4 / cplxblur=20.0 / qblur=0.5 / vbv_maxrate=50000 / vbv_bufsize=62500 / nal_hrd=none / filler=0 / ip_ratio=1.40 / pb_ratio=1.30 / aq=1:1.00
    Язык                                     : English
    Default                                  : Да
    Forced                                   : Нет

    Аудио #1
    Идентификатор                            : 2
    Формат                                   : AC-3
    Формат/Информация                        : Audio Coding 3
    Расширение режима                        : CM (complete main)
    Параметр Endianness формата              : Big
    Идентификатор кодека                     : A_AC3
    Продолжительность                        : 1 ч. 48 м.
    Вид битрейта                             : Постоянный
    Битрейт                                  : 192 Кбит/сек
    Каналы                                   : 2 канала
    Расположение каналов                     : Front: L R
    Частота                                  : 48,0 КГц
    Частота кадров                           : 31,250 кадров/сек (1536 spf)
    Битовая глубина                          : 16 бит
    Метод сжатия                             : С потерями
    Размер потока                            : 149 Мбайт (8%)
    Заголовок                                : MVO [HDrezka Studio]
    Язык                                     : Russian
    Default                                  : Да
    Forced                                   : Нет

    Аудио #2
    Идентификатор                            : 3
    Формат                                   : AC-3
    Формат/Информация                        : Audio Coding 3
    Расширение режима                        : CM (complete main)
    Параметр Endianness формата              : Big
    Идентификатор кодека                     : A_AC3
    Продолжительность                        : 1 ч. 48 м.
    Вид битрейта                             : Постоянный
    Битрейт                                  : 448 Кбит/сек
    Каналы                                   : 6 каналов
    Расположение каналов                     : Front: L C R, Side: L R, LFE
    Частота                                  : 48,0 КГц
    Частота кадров                           : 31,250 кадров/сек (1536 spf)
    Битовая глубина                          : 16 бит
    Метод сжатия                             : С потерями
    Размер потока                            : 349 Мбайт (18%)
    Заголовок                                : [Original]
    Язык                                     : English
    Default                                  : Нет
    Forced                                   : Нет

    Текст #1
    Идентификатор                            : 4
    Формат                                   : UTF-8
    Идентификатор кодека                     : S_TEXT/UTF8
    Идентификатор кодека/Информация          : UTF-8 Plain Text
    Продолжительность                        : 1 ч. 42 м.
    Битрейт                                  : 81 бит/сек
    Count of elements                        : 1223
    Размер потока                            : 61,4 Кбайт (0%)
    Заголовок                                : Full | Focs
    Язык                                     : Russian
    Default                                  : Нет
    Forced                                   : Нет

    Текст #2
    Идентификатор                            : 5
    Формат                                   : UTF-8
    Идентификатор кодека                     : S_TEXT/UTF8
    Идентификатор кодека/Информация          : UTF-8 Plain Text
    Продолжительность                        : 1 ч. 40 м.
    Битрейт                                  : 49 бит/сек
    Count of elements                        : 1236
    Размер потока                            : 36,3 Кбайт (0%)
    Заголовок                                : Full
    Язык                                     : English
    Default                                  : Нет
    Forced                                   : Нет

    Меню
    00:00:00.000                             : en:Chapter 01
    00:05:54.937                             : en:Chapter 02
    00:13:09.622                             : en:Chapter 03
    00:18:47.209                             : en:Chapter 04
    00:22:51.370                             : en:Chapter 05
    00:28:07.143                             : en:Chapter 06
    00:35:26.457                             : en:Chapter 07
    00:39:10.222                             : en:Chapter 08
    00:45:47.786                             : en:Chapter 09
    00:49:54.032                             : en:Chapter 10
    00:52:06.832                             : en:Chapter 11
    00:57:43.751                             : en:Chapter 12
    01:04:07.635                             : en:Chapter 13
    01:11:22.111                             : en:Chapter 14
    01:16:42.139                             : en:Chapter 15
    01:21:40.228                             : en:Chapter 16
    01:26:15.420                             : en:Chapter 17
    01:32:19.283                             : en:Chapter 18
    01:41:06.101                             : en:Chapter 19
    01:42:58.589                             : en:Chapter 20
    Свернуть


    Инструкция по скачиванию
     1  Качаем uTorrent версии 2.0 и выше
     2  После установки, жмем выше под постером на ссылку Скачать [MediaGet] или Скачать .torrent
     3  Открываем скачанный файл через соответствующий клиент: MediaGet или uTorrent
     4  Ждем пока подключатся участники
     5  Качаем
    Комментарии о  Спасибо за вашу службу / Thank You for Your Service | BDRip-AVC 
    Ближайшее в кино
    Вверх