• Игры для PS4
  • Игры для PS3
  • Игры для XBOX360
  • Игры для PC
  • Игры для PS2
  • Игры для PSP
  • Для телефонов
  • Музыка
  • Книги / Журналы
  • Обои
  • Опрос
    Удобен ли сайт в использовании?
      0
    • Очень удобен, все понятно1,1,false,300,full
    • Удобен1,2,false,300,full
    • Средне1,3,false,300,full
    • Неудобен, трудно ориентироваться1,4,false,300,full
    • Совсем неудобен1,5,false,300,full
    Статистика
    Всего онлайн -
    Гостей -
    Пользователей -
    Короли трекера
    Благодарности () Закрыть
    Информация о фильме
    Название: Одиночка.
    Год выхода: 2010
    Жанр:  Боевик, Криминал, Детектив
    Режиссер: Сергей Щербин
    В ролях: Данила Козловский, Ян Цапник, Андрей Кузнецов, Сергей Кудрявцев, Яков Шамшин, Анатолий Артёмов, Олег Жилин, Павел Исайкин, Мария Капустинская, Наталья Третьякова (V), Александр Клемантович, Олег Метелев, Александр Стёпин (II), Валентина Савчук, Татьяна Тарасова, Дмитрий Сутырин, Геннадий Меньшиков, Сергей Мардарь.

    О фильме:
    Вооруженный бандит, лицо которого скрыто под маской, совершает налет на сберкассу. Во время нападения погибает молодая женщина, жена оперуполномоченного Фролова. Представителям «органов» достаточно быстро удается выйти на след бандита — неизвестный, позвонивший в отделение милиции, дает операм наводку на дачу, где скрываются преступник.
    Сотрудники милиции проводят операцию, в ходе которой задержан некий Андрей Громов, который на самом деле является сотрудником спец. служб. Вина его полностью доказана и он получает 12 лет колонии строгого режима…



    Страна: Россия.
    Студия: "Триикс Медиагруп". По заказу НТВ.
    Продолжительность: 01:39:45
    Перевод: Не требуется.

    Файл
    Кодек: x264
    Качество: DVDRip-AVC
    Видео: 720x576@1024x576, 25.000 fps, ~2681 Kbps
    Звук: AC3, 6 ch, ~448 kbit/s

    ***Релиз от: -=DoMiNo=-

    M/I
    x264 info: frame I:1137  Avg QP:14.28  size: 46956
    x264 info: frame P:33268 Avg QP:16.69  size: 25258
    x264 info: frame B:115221 Avg QP:20.17  size:  9638
    x264 info: consecutive B-frames:  2.0%  2.2% 21.1%  3.5%  3.5% 67.1%  0.4%  0.1%  0.0%  0.0%  0.0%  0.0%  0.1%

    General
    Unique ID                   : 13223404625700715639661780532753833126 (0x9F2BC2F1713A858D8ADC5A0A58B9CA6)
    Complete name               : Одиночка_(2010)_DVDRIP-AVC_[-=DoMiNo=-].mkv
    Format                      : Matroska
    Format version              : Version 4
    File size                   : 2.18 GiB
    Duration                    : 1 h 39 min
    Overall bit rate            : 3 130 kb/s
    Movie name                  : Одиночка
    Deion                 : Вооруженный бандит, лицо которого скрыто под маской, совершает налет на сберкассу. Во время нападения погибает молодая женщина, жена оперуполномоченного Фролова. Представителям «органов» достаточно быстро удается выйти на след бандита — неизвестный, позвонивший в отделение милиции, дает операм наводку на дачу, где скрываются преступник.  / Сотрудники милиции проводят операцию, в ходе которой задержан некий Андрей Громов, который на самом деле является сотрудником спец. служб. Вина его полностью доказана и он получает 12 лет колонии строгого режима…
    Attachments                 : poster.jpg / backdrop.jpg
    ACTORS                      : Yan Tsapnik, Danila Kozlovsky, Andrey Kuznetsov
    DATE                        : 2010-12-12
    DIRECTOR                    : Sergey Sherbin
    GENRE                       : боевик
    ITUNEXTC                    : ru-movie|16+|375|
    RATING                      : 7.8

    Video
    ID                          : 1
    Format                      : AVC
    Format/Info                 : Advanced Video Codec
    Format profile              : High@L4.1
    Format settings             : CABAC / 12 Ref Frames
    Format settings, CABAC      : Yes
    Format settings, ReFrames   : 12 frames
    Codec ID                    : V_MPEG4/ISO/AVC
    Duration                    : 1 h 39 min
    Bit rate                    : 2 681 kb/s
    Width                       : 720 pixels
    Height                      : 576 pixels
    Display aspect ratio        : 16:9
    Frame rate mode             : Constant
    Frame rate                  : 25.000 FPS
    Standard                    : PAL
    Color space                 : YUV
    Chroma subsampling          : 4:2:0
    Bit depth                   : 8 bits
    Scan type                   : Progressive
    Bits/(Pixel*Frame)          : 0.259
    Stream size                 : 1.83 GiB (84%)
    Title                       : RIP_BY_-=DoMiNo=-
    Writing library             : x264 core 157 r2901M 7d0ff22
    Encoding settings           : cabac=1 / ref=12 / deblock=1:-3:-3 / analyse=0x3:0x133 / me=umh / subme=11 / psy=1 / psy_rd=1.00:0.10 / mixed_ref=1 / me_range=32 / chroma_me=1 / trellis=2 / 8x8dct=1 / cqm=0 / deadzone=21,11 / fast_pskip=0 / chroma_qp_offset=-3 / threads=6 / lookahead_threads=1 / sliced_threads=0 / nr=0 / decimate=1 / interlaced=0 / bluray_compat=0 / constrained_intra=0 / bframes=12 / b_pyramid=2 / b_adapt=2 / b_bias=0 / direct=3 / weightb=1 / open_gop=0 / weightp=2 / keyint=250 / keyint_min=25 / scenecut=40 / intra_refresh=0 / rc=2pass / mbtree=0 / bitrate=2681 / ratetol=1.0 / qcomp=0.70 / qpmin=0 / qpmax=69 / qpstep=4 / cplxblur=20.0 / qblur=0.5 / ip_ratio=1.40 / pb_ratio=1.30 / aq=1:0.80
    Default                     : Yes
    Forced                      : No
    Color range                 : Limited

    Audio
    ID                          : 2
    Format                      : AC-3
    Format/Info                 : Audio Coding 3
    Commercial name             : Dolby Digital
    Codec ID                    : A_AC3
    Duration                    : 1 h 39 min
    Bit rate mode               : Constant
    Bit rate                    : 448 kb/s
    Channel(s)                  : 6 channels
    Channel layout              : L R C LFE Ls Rs
    Sampling rate               : 48.0 kHz
    Frame rate                  : 31.250 FPS (1536 SPF)
    Bit depth                   : 16 bits
    Compression mode            : Lossy
    Stream size                 : 320 MiB (14%)
    Language                    : Russian
    Service kind                : Complete Main
    Default                     : Yes
    Forced                      : No

    Menu
    00:00:00.000                : :Глава 1
    00:10:19.360                : :Глава 2
    00:24:30.280                : :Глава 3
    00:33:40.720                : :Глава 4
    00:46:05.200                : :Глава 5
    00:59:03.160                : :Глава 6
    01:10:56.319                : :Глава 7
    01:25:53.679                : :Глава 8Свернуть


    Похожие раздачи Искать похожие
    Инструкция по скачиванию
     1  Качаем uTorrent версии 2.0 и выше
     2  После установки, жмем выше под постером на ссылку Скачать [MediaGet] или Скачать .torrent
     3  Открываем скачанный файл через соответствующий клиент: MediaGet или uTorrent
     4  Ждем пока подключатся участники
     5  Качаем
    Комментарии о  Одиночка | DVDRip-AVC 
    Ближайшее в кино
    Вверх