• Игры для PS4
  • Игры для PS3
  • Игры для XBOX360
  • Игры для PC
  • Игры для PS2
  • Игры для PSP
  • Для телефонов
  • Музыка
  • Книги / Журналы
  • Обои
  • Опрос
    Откуда Вы о нас узнали?
      0
    • От знакомых2,1,false,300,full
    • Из социальных сетей2,2,false,300,full
    • Из поисковых систем2,3,false,300,full
    • Другое2,4,false,300,full
    Статистика
    Всего онлайн -
    Гостей -
    Пользователей -
    Короли трекера
    Благодарности () Закрыть
    Информация о фильме
    Название: Королева сахарных плантаций
    Оригинальное название: Queen Sugar
    Год выпуска: 2018
    Страна: США
    Жанр: драма

    Перевод: Любительский [многоголосый] | KANSAI Studio
    Продолжительность: 00:42:22

    Режиссер: Кэт Кэндлер , Димэйн Дэвис , Нима Барнетт
    В ролях: Рутина Уэсли (Nova Bordelon), Дон-Лиэн Гарднер (Charley Bordelon West), Кофи Сирибо (Ralph Angel Bordelon), Омар Дж. Дорси (Hollywood Desonier), Николас Л. Эш (Micah West), Дондре Уитфилд (Remy Newell), Этан Хатчисон (Blue Bordelon), Тина Лиффорд (Violet Bordelon), Бьянка Лоусон (Darla), Тимон Кайл (Davis West), Генри Дж. Сандерс (Prosper Denton), Грег Вон (Calvin)

    Описание:
    В центре сюжета находятся сёстры Борделон, Нова - журналист и видный активист Нового Орлеана, и Чарли, которая возвращается в Новый Орлеан из Лос-Анджелеса вместе с сыном-подростком, оставляя привычную жизнь, чтобы унаследовать от недавно умершего отца плантацию в 800 акров сахарного тростника.

    Рейтинг:
    [img]http://www.kinopoisk.ru/rating/891644.gif[/img][img]http://i104.fastpic.ru/big/2018/0420/14/0bd00ccdbc2631353d2ad3abcf0a7014.gif[/img]

    Качество: WEB-DL 1080p | Queen.Sugar.S03.1080p.AMZN.WEB-DL.DDP5.1.H.264-NTb
    Формат: MKV
    Видео: AVC, 1920x1080 (16:9), 11211 kbps, 23,976 fps, 0,226 bpp
    Аудио №1: русский / AC3 / 2.0 / 48 kHz / 192 kbps
    Аудио №2: английский / E-AC3 / 5.1 / 48 kHz / 640 kbps
    Субтитры: английские, английские (SDH)
    Реклама: Присутствует звуковая.

    ОтчетМедиаИнфо

    General
    Unique ID                                : 180309344337673080221335914713468733708 (0x87A65109811F35EA8A7D698DAF75890C)
    Complete name                            : G:�_kansaitorQueen.Sugar.S03.1080p.WEBDL-KANSAIQueen.Sugar.S03E01.A.Rock.A.River.A.Tree.1080p.WEBDL-KANSAI.mkv
    Format                                   : Matroska
    Format version                           : Version 4 / Version 2
    File size                                : 3.64 GiB
    Duration                                 : 42 min
    Overall bit rate mode                    : Variable
    Overall bit rate                         : 12.3 Mb/s
    Encoded date                             : UTC 2018-09-11 08:51:04
    Writing application                      : mkvmerge v6.7.0 ("Back to the Ground") 64bit built on Jan  8 2014 15:10:52
    Writing library                          : libebml v1.3.0 + libmatroska v1.4.1

    Video
    ID                                       : 1
    Format                                   : AVC
    Format/Info                              : Advanced Video Codec
    Format profile                           : High@L4
    Format settings, CABAC                   : Yes
    Format settings, ReFrames                : 4 frames
    Codec ID                                 : V_MPEG4/ISO/AVC
    Duration                                 : 42 min
    Bit rate mode                            : Variable
    Bit rate                                 : 11.2 Mb/s
    Maximum bit rate                         : 15.0 Mb/s
    Width                                    : 1 920 pixels
    Height                                   : 1 080 pixels
    Display aspect ratio                     : 16:9
    Frame rate mode                          : Constant
    Frame rate                               : 23.976 (24000/1001) FPS
    Color space                              : YUV
    Chroma subsampling                       : 4:2:0
    Bit depth                                : 8 bits
    Scan type                                : Progressive
    Bits/(Pixel*Frame)                       : 0.226
    Stream size                              : 3.32 GiB (91%)
    Default                                  : Yes
    Forced                                   : No
    Color range                              : Limited
    Color primaries                          : BT.709
    Transfer characteristics                 : BT.709
    Matrix coefficients                      : BT.709

    Audio #1
    ID                                       : 2
    Format                                   : AC-3
    Format/Info                              : Audio Coding 3
    Mode extension                           : CM (complete main)
    Format settings, Endianness              : Big
    Codec ID                                 : A_AC3
    Duration                                 : 42 min
    Bit rate mode                            : Constant
    Bit rate                                 : 192 kb/s
    Channel(s)                               : 2 channels
    Channel positions                        : Front: L R
    Sampling rate                            : 48.0 kHz
    Frame rate                               : 31.250 FPS (1536 spf)
    Compression mode                         : Lossy
    Stream size                              : 58.2 MiB (2%)
    Title                                    : KANSAI Studio
    Language                                 : Russian
    Default                                  : Yes
    Forced                                   : No

    Audio #2
    ID                                       : 3
    Format                                   : E-AC-3
    Format/Info                              : Audio Coding 3
    Format settings, Endianness              : Big
    Codec ID                                 : A_EAC3
    Duration                                 : 42 min
    Bit rate mode                            : Constant
    Bit rate                                 : 640 kb/s
    Channel(s)                               : 6 channels
    Channel positions                        : Front: L C R, Side: L R, LFE
    Sampling rate                            : 48.0 kHz
    Frame rate                               : 187.500 FPS (256 spf)
    Compression mode                         : Lossy
    Stream size                              : 194 MiB (5%)
    Language                                 : English
    Default                                  : No
    Forced                                   : No

    Text #1
    ID                                       : 4
    Format                                   : UTF-8
    Codec ID                                 : S_TEXT/UTF8
    Codec ID/Info                            : UTF-8 Plain Text
    Language                                 : English
    Default                                  : No
    Forced                                   : No

    Text #2
    ID                                       : 5
    Format                                   : UTF-8
    Codec ID                                 : S_TEXT/UTF8
    Codec ID/Info                            : UTF-8 Plain Text
    Title                                    : SDH
    Language                                 : English
    Default                                  : No
    Forced                                   : No

    Свернуть


    Похожие раздачи Искать похожие
    Инструкция по скачиванию
     1  Качаем uTorrent версии 2.0 и выше
     2  После установки, жмем выше под постером на ссылку Скачать [MediaGet] или Скачать .torrent
     3  Открываем скачанный файл через соответствующий клиент: MediaGet или uTorrent
     4  Ждем пока подключатся участники
     5  Качаем
    Комментарии о  Королева сахара / Queen Sugar [Сезон 03 | 01-07 серии из 13] | WEB-DL 1080p 
    Ближайшее в кино
    Вверх