• Игры для PS4
  • Игры для PS3
  • Игры для XBOX360
  • Игры для PC
  • Игры для PS2
  • Игры для PSP
  • Для телефонов
  • Музыка
  • Книги / Журналы
  • Обои
  • Опрос
    Удобен ли сайт в использовании?
      0
    • Очень удобен, все понятно1,1,false,300,full
    • Удобен1,2,false,300,full
    • Средне1,3,false,300,full
    • Неудобен, трудно ориентироваться1,4,false,300,full
    • Совсем неудобен1,5,false,300,full
    Статистика
    Всего онлайн -
    Гостей -
    Пользователей -
    Короли трекера
    Благодарности () Закрыть
    Название: Наркоман Павлик
    Год выхода: 2018
    Жанр: Комедия, короткометражный
    Режиссер: Павел Радонцев
    В ролях: Павел Радонцев, Денис Гущин, Кирилл Демидов, Антон Батищев, Илья Сорокин, Андрей Савицкий, Регина Вожова, Иван Солдаткин, Ольга Лапушкина, Михаил Мартынов, Хамид Дышниев, Андрей Мирославский, Артём Веретенников, Николай Гусляров

    О сериале:
    Короткометражный, юмористический сериал о приключениях Павлика, от участников проектов Comedy Club Samara Style, Comedy Club Saint-Petersburg. Сериал стремительно набирает популярность, фразы Павлика всё чаще встречаются на просторах рунета. "Здорова братиш!" - если вы слышали это и не знали откуда, смотрите. Очень угарная и ржачная тема!

    Страна: Россия
    Студия: Comedoz
    Продолжительность: ~00:25:00
    Перевод: Не требуется
    Субтитры: Нет

    Файл
    Формат: MKV
    Качество: WEB-DLRip (1080p)

    Видео: MPEG-4 AVC, ~ 5000 Кбит/с, 1920x1080
    Звук: AC3, 2 ch, 192 Кбит/с

    [img]https://b.radikal.ru/b38/1812/b1/de90687eadcb.jpg[/img][img]https://a.radikal.ru/a23/1812/5d/7eacf41ea380.gif[/img]
    [img]https://d.radikal.ru/d07/1812/55/05716f0521fb.gif[/img]

    MediaInfo
    Общее
    Уникальный идентификатор                 : 17708616089589781769623812412704391206 (0xD528E2EB2C546FCC36017B1A83D8026)
    Полное имя                               : E:ТоррентPavlik.S05.WEB-DL.1080pPavlik.S05E01.WEB-DL.1080p.mkv
    Формат                                   : Matroska
    Версия формата                           : Version 4
    Размер файла                             : 958 Мбайт
    Продолжительность                        : 25 м. 41 с.
    Общий поток                              : 5211 Кбит/сек
    Дата кодирования                         : UTC 2018-12-02 17:27:30
    Программа кодирования                    : mkvmerge v29.0.0 ("Like It Or Not") 64-bit
    Библиотека кодирования                   : libebml v1.3.6 + libmatroska v1.4.9
    Attachments                              : poster.jpg

    Видео
    Идентификатор                            : 1
    Формат                                   : AVC
    Формат/Информация                        : Advanced Video Codec
    Профиль формата                          : Main@L5.1
    Настройки формата                        : CABAC / 1 Ref Frames
    Параметр CABAC формата                   : Да
    Параметр RefFrames формата               : 1 кадр
    Идентификатор кодека                     : V_MPEG4/ISO/AVC
    Продолжительность                        : 25 м. 41 с.
    Битрейт                                  : 5017 Кбит/сек
    Ширина                                   : 1920 пикселей
    Высота                                   : 1080 пикселей
    Соотношение сторон                       : 16:9
    Режим частоты кадров                     : Постоянный
    Частота кадров                           : 25,000 кадров/сек
    Цветовое пространство                    : YUV
    Субдискретизация насыщенности            : 4:2:0
    Битовая глубина                          : 8 бит
    Тип развёртки                            : Прогрессивная
    Бит/(Пиксели*Кадры)                      : 0.097
    Размер потока                            : 922 Мбайт (96%)
    Default                                  : Да
    Forced                                   : Нет

    Аудио
    Идентификатор                            : 2
    Формат                                   : AC-3
    Формат/Информация                        : Audio Coding 3
    Коммерческое название                    : Dolby Digital
    Идентификатор кодека                     : A_AC3
    Продолжительность                        : 25 м. 41 с.
    Вид битрейта                             : Постоянный
    Битрейт                                  : 192 Кбит/сек
    Каналы                                   : 2 канала
    Channel layout                           : L R
    Частота                                  : 48,0 КГц
    Частота кадров                           : 31,250 кадров/сек (1536 SPF)
    Битовая глубина                          : 16 бит
    Метод сжатия                             : С потерями
    Размер потока                            : 35,3 Мбайт (4%)
    Default                                  : Да
    Forced                                   : Нет
    Свернуть


    Похожие раздачи Искать похожие
    Инструкция по скачиванию
     1  Качаем uTorrent версии 2.0 и выше
     2  После установки, жмем выше под постером на ссылку Скачать [MediaGet] или Скачать .torrent
     3  Открываем скачанный файл через соответствующий клиент: MediaGet или uTorrent
     4  Ждем пока подключатся участники
     5  Качаем
    Комментарии о  Наркоман Павлик [Сезон 05] | WEB-DLRip 1080p 
    Ближайшее в кино
    Вверх