• Игры для PS4
  • Игры для PS3
  • Игры для XBOX360
  • Игры для PC
  • Игры для PS2
  • Игры для PSP
  • Для телефонов
  • Музыка
  • Книги / Журналы
  • Обои
  • Опрос
    Откуда Вы о нас узнали?
      0
    • От знакомых2,1,false,300,full
    • Из социальных сетей2,2,false,300,full
    • Из поисковых систем2,3,false,300,full
    • Другое2,4,false,300,full
    Статистика
    Всего онлайн -
    Гостей -
    Пользователей -
    Короли трекера
    Благодарности () Закрыть
    Информация о фильме
    Название: Мечтатели
    Оригинальное название: The Dreamers
    Год выпуска: 2003
    Жанр:  драма, мелодрама
    Режиссер: Бернардо Бертолуччи
    В ролях: Майкл Питт (Matthew), Ева Грин (Isabelle / Sister), Луи Гаррель (Theo / Brother), Анна Чэнселлор (Mother), Робен Ренуччи (Father), Жан-Пьер Кальфон (играет самого себя), Жан-Пьер Лео (играет самого себя), Флориан Кадиу (Patrick), Пьер Ханчиссе (First Buff), Валентен Мерле (Second Buff), Лола Пиплоу (The Usherette), Инги Филлион (Theo"s Girlfriend)

    О фильме: Париж, 1968 год — демонстрации студентов, баррикады на улицах, в воздухе пахнет революцией: Но у трех молодых людей — своя реальность, свой мир — мир кино. Дни и ночи напролет они смотрят фильмы и не выходят из дома…

    Кино стало их жизнью. Сначала это просто увлечение, потом — сложная паутина психологических и сексуальных отношений. Между тем, беспорядки на улицах Парижа достигают своей кульминации…



    MPAA: NC-17 - Лицам до 17 лет просмотр запрещен

    Страна: Великобритания, Франция, Италия
    Студия: Fiction Films, Peninsula Films, Recorded Picture Company (RPC)
    Продолжительность: 01:54:37
    Перевод: Профессиональный (многоголосый, закадровый), Авторский (одноголосый, закадровый)

    Файл
    Качество: BDRip 720p | KOR Transfer
    Формат: Matroska
    Видео: 1280x718 at 23.976 fps, MPEG-4 AVC, ~5520 kbps avg
    Аудио#1: Russian: 48 kHz, AC3, 3/2 (L,C,R,l,r) + LFE ch, ~448 kbps avg |Многоголосый закадровый, R5|
    Аудио#2: Russian: 48 kHz, AC3, 3/2 (L,C,R,l,r) + LFE ch, ~384 kbps avg |Многоголосый закадровый, R7|
    Аудио#3: Russian: 48 kHz, AC3, 2/0 (L,R) ch, ~192 kbps avg |Многоголосый закадровый, HTB+|
    Аудио#4: Russian: 48 kHz, AC3, 2/0 (L,R) ch, ~192 kbps avg |Авторский, С.Визгунов [VHS]|
    Аудио#5: English: 48 kHz, AC3, 3/2 (L,C,R,l,r) + LFE ch, ~448 kbps avg
    Субтитры: Russian, English

    ***Сохранены оригинальные главы как на Blu-ray.
    ***Релиз: msltel.

    Знаете ли вы, что...
    Фильм снят по мотивам романа Гилберта Адэра «Мечтатели» (The Holy Innocents, 1988) и еще двух книг писателя. Он сам написал сценарий к фильму.
    На роль Мэттью рассматривалась кандидатура Леонардо Дикаприо. Он отклонил предложение из-за съемок в фильме «Авиатор».
    Джейк Джилленхол предполагался на роль первоначально. Отклонил роль из-за обилия откровенных сцен.
    Картина Бернардо Бертолуччи получила в США самый жёсткий прокатный рейтинг - NC-17.
    В фильме «Мечтатели» нет оригинальной музыки. Вся музыка, звучащая в фильме, взята из других кинолент.
    Большинство сцен, затрагивающих сексуальные взаимоотношения между Мэттью и Тео, в фильм не попало. Создатели сочли их чересчур вызывающими. В этом существенное отличие картины Бертолуччи от романа Адэра.
    Сцена, в которой герои пробегают через Лувр, цитирует сцену из фильма «Банда аутсайдеров» Жана-Люка Годара.
    Сцена, в которой волосы Изабель охватило пламенем была незапланированной. Ева Грин должна была наклониться вперед, чтобы поцеловать Меттью на ночь, но случайно ее волосы загорелись от стоящей на столе свечи. Ева не придала этому большого значения и играла так естественно, что Бертолуччи решил оставить сцену, так как посчитал, что она в полной мере демонстрировала в некоторой степени безумие всего происходящего.
    По ходу фильма герои сознательно воспроизводят сцены из любимых ими фильмов, либо повторяют характерные жесты любимых киногероев. Например, сцена, в которой герои пробегают через Лувр, - повторение пробежки через Лувр в ленте Годара «Посторонние». Сцена, где Изабель и Тео, после пробежки в Лувре повторяют фразу «Мы принимаем его. Он один из нас» воспроизводит сцену из фильма Тода Браунинга «Уродцы» (1932). Изабель говорит, что её первыми словами по-английски были New York Herald Tribune - первая фраза американки в годаровской ленте «На последнем дыхании». Попытка самоубийства сопровождается кадрами самоубийства Мушетт из одноимённой ленты Брессона. Другие цитируемые героями фильмы - «Дамы Булонского леса» Брессона, «Огни большого города» Чарльза Чаплина, «Золотой век» Бюнюэля, «Лицо со шрамом» Говарда Хоукса, «Бульвар Сансет» Билли Уайлдера, «Белокурая Венера» с Марлен Дитрих, «Королева Кристина» с Гретой Гарбо, «Цилиндр» с Фредом Астером. В кинотеатре герои фильма смотрят культовый фильм Сэмюэла Фуллера «Шоковый коридор». В квартире висят постеры к фильмам Ингмара Бергмана («Персона»), Годара («Китаянка») и Антониони («Фотоувеличение»). Вся музыка, звучащая в фильме, взята из других кинолент.Свернуть


    MediaInfo
    Общее
    Уникальный идентификатор                 : 240021170929764155103156923037955312280 (0xB4926562BFF145DDA1E7C054F682CA98)
    Полное имя                               : Мечтатели.2003.Korean transfer.BDRip 720p by msltel.mkv
    Формат                                   : Matroska
    Версия формата                           : Version 4 / Version 2
    Размер файла                             : 5,87 Гбайт
    Продолжительность                        : 1 ч. 54 м.
    Общий поток                              : 7330 Кбит/сек
    Название фильма                          : Rip by msltel
    Дата кодирования                         : UTC 2018-11-30 18:00:59
    Программа кодирования                    : mkvmerge v8.2.0 ("World of Adventure") 64bit
    Библиотека кодирования                   : libebml v1.3.1 + libmatroska v1.4.2

    Видео
    Идентификатор                            : 1
    Формат                                   : AVC
    Формат/Информация                        : Advanced Video Codec
    Профиль формата                          : High@L4.1
    Параметр CABAC формата                   : Да
    Параметр ReFrames формата                : 9 кадров
    Идентификатор кодека                     : V_MPEG4/ISO/AVC
    Продолжительность                        : 1 ч. 54 м.
    Битрейт                                  : 5520 Кбит/сек
    Ширина                                   : 1280 пикселей
    Высота                                   : 718 пикселей
    Соотношение сторон                       : 16:9
    Режим частоты кадров                     : Постоянный
    Частота кадров                           : 23,976 кадра/сек
    Цветовое пространство                    : YUV
    Субдискретизация насыщенности            : 4:2:0
    Битовая глубина                          : 8 бит
    Тип развёртки                            : Прогрессивная
    Бит/(Пиксели*Кадры)                      : 0.250
    Размер потока                            : 4,42 Гбайт (75%)
    Библиотека кодирования                   : x264 core 155 r2901 7d0ff22
    Настройки программы                      : cabac=1 / ref=9 / deblock=1:-3:-2 / analyse=0x3:0x113 / me=umh / subme=11 / psy=1 / psy_rd=1.00:0.15 / mixed_ref=1 / me_range=32 / chroma_me=1 / trellis=2 / 8x8dct=1 / cqm=0 / deadzone=21,11 / fast_pskip=0 / chroma_qp_offset=-3 / threads=6 / lookahead_threads=1 / sliced_threads=0 / nr=0 / decimate=1 / interlaced=0 / bluray_compat=0 / constrained_intra=0 / bframes=10 / b_pyramid=2 / b_adapt=2 / b_bias=0 / direct=1 / weightb=1 / open_gop=0 / weightp=2 / keyint=230 / keyint_min=23 / scenecut=40 / intra_refresh=0 / rc_lookahead=40 / rc=crf / mbtree=1 / crf=20.0 / qcomp=0.60 / qpmin=0 / qpmax=69 / qpstep=4 / vbv_maxrate=62500 / vbv_bufsize=78125 / crf_max=0.0 / nal_hrd=none / filler=0 / ip_ratio=1.40 / aq=1:1.00
    Язык                                     : English
    Default                                  : Да
    Forced                                   : Нет

    Аудио #1
    Идентификатор                            : 2
    Формат                                   : AC-3
    Формат/Информация                        : Audio Coding 3
    Расширение режима                        : CM (complete main)
    Параметр Endianness формата              : Big
    Идентификатор кодека                     : A_AC3
    Продолжительность                        : 1 ч. 54 м.
    Вид битрейта                             : Постоянный
    Битрейт                                  : 448 Кбит/сек
    Каналы                                   : 6 каналов
    Расположение каналов                     : Front: L C R, Side: L R, LFE
    Частота                                  : 48,0 КГц
    Битовая глубина                          : 16 бит
    Метод сжатия                             : С потерями
    Размер потока                            : 367 Мбайт (6%)
    Заголовок                                : MVO R5
    Язык                                     : Russian
    Default                                  : Да
    Forced                                   : Нет

    Аудио #2
    Идентификатор                            : 3
    Формат                                   : AC-3
    Формат/Информация                        : Audio Coding 3
    Расширение режима                        : CM (complete main)
    Параметр Endianness формата              : Big
    Идентификатор кодека                     : A_AC3
    Продолжительность                        : 1 ч. 54 м.
    Вид битрейта                             : Постоянный
    Битрейт                                  : 384 Кбит/сек
    Каналы                                   : 6 каналов
    Расположение каналов                     : Front: L C R, Side: L R, LFE
    Частота                                  : 48,0 КГц
    Битовая глубина                          : 16 бит
    Метод сжатия                             : С потерями
    Размер потока                            : 315 Мбайт (5%)
    Заголовок                                : MVO R7
    Язык                                     : Russian
    Default                                  : Нет
    Forced                                   : Нет

    Аудио #3
    Идентификатор                            : 4
    Формат                                   : AC-3
    Формат/Информация                        : Audio Coding 3
    Расширение режима                        : CM (complete main)
    Параметр Endianness формата              : Big
    Идентификатор кодека                     : A_AC3
    Продолжительность                        : 1 ч. 54 м.
    Вид битрейта                             : Постоянный
    Битрейт                                  : 192 Кбит/сек
    Каналы                                   : 2 канала
    Расположение каналов                     : Front: L R
    Частота                                  : 48,0 КГц
    Битовая глубина                          : 16 бит
    Метод сжатия                             : С потерями
    Размер потока                            : 157 Мбайт (3%)
    Заголовок                                : MVO HTB+
    Язык                                     : Russian
    Default                                  : Нет
    Forced                                   : Нет

    Аудио #4
    Идентификатор                            : 5
    Формат                                   : AC-3
    Формат/Информация                        : Audio Coding 3
    Расширение режима                        : CM (complete main)
    Параметр Endianness формата              : Big
    Идентификатор кодека                     : A_AC3
    Продолжительность                        : 1 ч. 54 м.
    Вид битрейта                             : Постоянный
    Битрейт                                  : 192 Кбит/сек
    Каналы                                   : 2 канала
    Расположение каналов                     : Front: L R
    Частота                                  : 48,0 КГц
    Битовая глубина                          : 16 бит
    Метод сжатия                             : С потерями
    Размер потока                            : 157 Мбайт (3%)
    Заголовок                                : Сергей Визгунов
    Язык                                     : Russian
    Default                                  : Нет
    Forced                                   : Нет

    Аудио #5
    Идентификатор                            : 6
    Формат                                   : AC-3
    Формат/Информация                        : Audio Coding 3
    Расширение режима                        : CM (complete main)
    Параметр Endianness формата              : Big
    Идентификатор кодека                     : A_AC3
    Продолжительность                        : 1 ч. 54 м.
    Вид битрейта                             : Постоянный
    Битрейт                                  : 448 Кбит/сек
    Каналы                                   : 6 каналов
    Расположение каналов                     : Front: L C R, Side: L R, LFE
    Частота                                  : 48,0 КГц
    Битовая глубина                          : 16 бит
    Метод сжатия                             : С потерями
    Размер потока                            : 367 Мбайт (6%)
    Заголовок                                : original
    Язык                                     : English
    Default                                  : Нет
    Forced                                   : Нет

    Текст #1
    Идентификатор                            : 7
    Формат                                   : UTF-8
    Идентификатор кодека                     : S_TEXT/UTF8
    Идентификатор кодека/Информация          : UTF-8 Plain Text
    Заголовок                                : русские
    Язык                                     : Russian
    Default                                  : Нет
    Forced                                   : Нет

    Текст #2
    Идентификатор                            : 8
    Формат                                   : UTF-8
    Идентификатор кодека                     : S_TEXT/UTF8
    Идентификатор кодека/Информация          : UTF-8 Plain Text
    Заголовок                                : английские
    Язык                                     : English
    Default                                  : Нет
    Forced                                   : Нет

    Меню
    00:00:00.000                             : en:00:00:00.000
    00:01:34.761                             : en:00:01:34.761
    00:05:29.329                             : en:00:05:29.329
    00:11:43.328                             : en:00:11:43.328
    00:16:02.545                             : en:00:16:02.545
    00:21:38.255                             : en:00:21:38.255
    00:27:19.555                             : en:00:27:19.555
    00:30:10.475                             : en:00:30:10.475
    00:33:31.885                             : en:00:33:31.885
    00:35:15.780                             : en:00:35:15.780
    00:38:05.325                             : en:00:38:05.325
    00:42:53.446                             : en:00:42:53.446
    00:48:38.666                             : en:00:48:38.666
    00:59:16.887                             : en:00:59:16.887
    01:02:44.052                             : en:01:02:44.052
    01:05:36.057                             : en:01:05:36.057
    01:10:10.706                             : en:01:10:10.706
    01:11:33.956                             : en:01:11:33.956
    01:15:21.684                             : en:01:15:21.684
    01:20:19.523                             : en:01:20:19.523
    01:24:43.787                             : en:01:24:43.787
    01:29:40.667                             : en:01:29:40.667
    01:34:01.177                             : en:01:34:01.177
    01:37:10.450                             : en:01:37:10.450
    01:40:40.618                             : en:01:40:40.618
    01:44:29.054                             : en:01:44:29.054
    01:46:14.910                             : en:01:46:14.910
    01:48:55.821                             : en:01:48:55.821Свернуть


    Скриншоты
    [screen]http://img14.lostpic.net/2018/12/03/a51bcc22acc279f0f4746b8b88ca2e8a.png[/screen][screen]http://img14.lostpic.net/2018/12/03/645f16a1ba749abd0c50cbe374b5e415.png[/screen][screen]http://img14.lostpic.net/2018/12/03/aa5074e3e32fa17cc5842b69465676f6.png[/screen][screen]http://img14.lostpic.net/2018/12/03/0fd876f0a8db9841869cae500db90a95.png[/screen]Свернуть
    Похожие раздачи Искать похожие
    Инструкция по скачиванию
     1  Качаем uTorrent версии 2.0 и выше
     2  После установки, жмем выше под постером на ссылку Скачать [MediaGet] или Скачать .torrent
     3  Открываем скачанный файл через соответствующий клиент: MediaGet или uTorrent
     4  Ждем пока подключатся участники
     5  Качаем
    Комментарии о  Мечтатели / The Dreamers | BDRip 720p 
    Ближайшее в кино
    Вверх