• Игры для PS4
  • Игры для PS3
  • Игры для XBOX360
  • Игры для PC
  • Игры для PS2
  • Игры для PSP
  • Для телефонов
  • Музыка
  • Книги / Журналы
  • Обои
  • Опрос
    Откуда Вы о нас узнали?
      0
    • От знакомых2,1,false,300,full
    • Из социальных сетей2,2,false,300,full
    • Из поисковых систем2,3,false,300,full
    • Другое2,4,false,300,full
    Статистика
    Всего онлайн -
    Гостей -
    Пользователей -
    Короли трекера
    Благодарности () Закрыть
    Год выпуска: 1986
    Страна: Франция, Швейцария, Италия
    Жанр:  драма
    Продолжительность: 01:53:28
    Перевод: профессиональный многоголосый
    Субтитры: русские

    Режиссёр: Клод Берри

    В ролях: Ив Монтан, Даниель Отой, Элизабет Депардьё, Эммануэль Беар, Маргарита Лосано, Арман Меффр, Пьер Нугаро, Жан Морель, Роже Суза, Дидье Пэн, Пьер-Жан Рипперт, Марк Беттон, Клементе Кэл, Бенедетто Бертино, Франсинед, Марсель Бербер

    Описание: Манон было 8 лет, когда её отец-горбун умер, так и не найдя воду на своей земле. Ферму по дешёвке прибирает семья Субейранов, когда-то специально засыпавшая источник. Восемнадцатилетняя красавица-пастушка Манон, уединённо живущая в горах, узнает правду и отвергает притязания племянника главы семейства Юголена, доведя его до самоубийства. А потом перекрывает источник и оставляет ферму без воды... По роману Марселя Паньоля «Вода с холмов».



    Качество: BDRip 720p Сравнение с исходником
    Формат: MKV
    Видео кодек: H.264
    Аудио кодек: AC3
    Видео: 1280x544, 5438 kbps, 24 кадра/с, 0.325 bpp
    Аудио 1: русский, AC3, 448 kbps, 6 ch, 48 kHz [профессиональный многоголосый]
    Аудио 2: французский, AC3, 448 kbps, 6 ch, 48 kHz [оригинал]

    Имеются неименованные главы/чаптеры.

    Награды
    Британская академия, 1988 год
    Номинации (1):
    Лучший фильм на иностранном языке

    Сезар, 1987 год
    Победитель (1):
    Лучшая актриса второго плана (Эммануэль Беар)

    Номинации (1):
    Лучший постерСвернуть


    MediaInfo
    frame I:938   Avg QP:21.98  size:107888
    frame P:28962 Avg QP:23.27  size: 54392
    frame B:133492 Avg QP:25.23  size: 22914

    Общее
    Уникальный идентификатор                 : 178309027331841026986358037261989421832 (0x862511CB5C76D0888634F2561DA3A308)
    Полное имя                               : D:VideoManon s istochnika.1986.BDRip.720p.mkv
    Формат                                   : Matroska
    Версия формата                           : Version 4 / Version 2
    Размер файла                             : 5,12 Гбайт
    Продолжительность                        : 1 ч. 53 м.
    Общий поток                              : 6463 Кбит/сек
    Дата кодирования                         : UTC 2014-11-23 03:28:59
    Программа кодирования                    : mkvmerge v7.3.0 ("Nouages") 64bit built on Oct 22 2014 18:53:34
    Библиотека кодирования                   : libebml v1.3.0 + libmatroska v1.4.1
    DURATION                                 : 01:48:58.499000000
    NUMBER_OF_FRAMES                         : 901
    NUMBER_OF_BYTES                          : 63513
    _STATISTICS_WRITING_APP                  : mkvmerge v7.3.0 ("Nouages") 64bit built on Oct 22 2014 18:53:34
    _STATISTICS_WRITING_DATE_UTC             : 2014-11-23 03:28:59
    _STATISTICS_TAGS                         : BPS DURATION NUMBER_OF_FRAMES NUMBER_OF_BYTES

    Видео
    Идентификатор                            : 1
    Формат                                   : AVC
    Формат/Информация                        : Advanced Video Codec
    Профиль формата                          : High@L4.1
    Параметр CABAC формата                   : Да
    Параметр ReFrames формата                : 9 кадров
    Идентификатор кодека                     : V_MPEG4/ISO/AVC
    Продолжительность                        : 1 ч. 53 м.
    Битрейт                                  : 5438 Кбит/сек
    Ширина                                   : 1280 пикселей
    Высота                                   : 544 пикселя
    Соотношение сторон                       : 2,35:1
    Режим частоты кадров                     : Постоянный
    Частота кадров                           : 24,000 кадра/сек
    Цветовое пространство                    : YUV
    Субдискретизация насыщенности            : 4:2:0
    Битовая глубина                          : 8 бит
    Тип развёртки                            : Прогрессивная
    Бит/(Пиксели*Кадры)                      : 0.325
    Размер потока                            : 4,31 Гбайт (84%)
    Заголовок                                : BDRip  --  STarankov
    Библиотека кодирования                   : x264 core 142 r2431 ac76440
    Настройки программы                      : cabac=1 / ref=9 / deblock=1:-1:-1 / analyse=0x3:0x113 / me=umh / subme=10 / psy=1 / psy_rd=1.00:0.15 / mixed_ref=1 / me_range=32 / chroma_me=1 / trellis=2 / 8x8dct=1 / cqm=0 / deadzone=21,11 / fast_pskip=1 / chroma_qp_offset=-3 / threads=6 / lookahead_threads=1 / sliced_threads=0 / nr=0 / decimate=1 / interlaced=0 / bluray_compat=0 / constrained_intra=0 / bframes=8 / b_pyramid=2 / b_adapt=2 / b_bias=0 / direct=3 / weightb=1 / open_gop=0 / weightp=2 / keyint=230 / keyint_min=23 / scenecut=40 / intra_refresh=0 / rc_lookahead=40 / rc=crf / mbtree=0 / crf=20.0 / qcomp=0.60 / qpmin=0 / qpmax=69 / qpstep=4 / vbv_maxrate=50000 / vbv_bufsize=62500 / crf_max=0.0 / nal_hrd=none / filler=0 / ip_ratio=1.40 / pb_ratio=1.30 / aq=1:1.00
    Язык                                     : French
    Default                                  : Да
    Forced                                   : Нет
    DURATION                                 : 01:53:28.000000000
    NUMBER_OF_FRAMES                         : 163392
    NUMBER_OF_BYTES                          : 4735363977
    _STATISTICS_WRITING_APP                  : mkvmerge v7.3.0 ("Nouages") 64bit built on Oct 22 2014 18:53:34
    _STATISTICS_WRITING_DATE_UTC             : 2014-11-23 03:28:59
    _STATISTICS_TAGS                         : BPS DURATION NUMBER_OF_FRAMES NUMBER_OF_BYTES

    Аудио #1
    Идентификатор                            : 2
    Формат                                   : AC-3
    Формат/Информация                        : Audio Coding 3
    Расширение режима                        : CM (complete main)
    Параметр Endianness формата              : Big
    Идентификатор кодека                     : A_AC3
    Продолжительность                        : 1 ч. 53 м.
    Вид битрейта                             : Постоянный
    Битрейт                                  : 448 Кбит/сек
    Каналы                                   : 6 каналов
    Расположение каналов                     : Front: L C R, Side: L R, LFE
    Частота                                  : 48,0 КГц
    Битовая глубина                          : 16 бит
    Метод сжатия                             : С потерями
    Размер потока                            : 364 Мбайт (7%)
    Заголовок                                : MVO (CP Digital)
    Язык                                     : Russian
    Default                                  : Да
    Forced                                   : Нет

    Аудио #2
    Идентификатор                            : 3
    Формат                                   : AC-3
    Формат/Информация                        : Audio Coding 3
    Расширение режима                        : CM (complete main)
    Параметр Endianness формата              : Big
    Идентификатор кодека                     : A_AC3
    Продолжительность                        : 1 ч. 53 м.
    Вид битрейта                             : Постоянный
    Битрейт                                  : 448 Кбит/сек
    Каналы                                   : 6 каналов
    Расположение каналов                     : Front: L C R, Side: L R, LFE
    Частота                                  : 48,0 КГц
    Битовая глубина                          : 16 бит
    Метод сжатия                             : С потерями
    Размер потока                            : 364 Мбайт (7%)
    Заголовок                                : Original
    Язык                                     : French
    Default                                  : Нет
    Forced                                   : Нет

    Текст
    Идентификатор                            : 4
    Формат                                   : UTF-8
    Идентификатор кодека                     : S_TEXT/UTF8
    Идентификатор кодека/Информация          : UTF-8 Plain Text
    Заголовок                                : русский
    Язык                                     : Russian
    Default                                  : Нет
    Forced                                   : Нет

    Меню
    00:00:00.000                             : :Chapter 01
    00:05:00.000                             : :Chapter 02
    00:10:00.000                             : :Chapter 03
    00:15:00.000                             : :Chapter 04
    00:20:00.000                             : :Chapter 05
    00:25:00.000                             : :Chapter 06
    00:30:00.000                             : :Chapter 07
    00:35:00.000                             : :Chapter 08
    00:40:00.000                             : :Chapter 09
    00:45:00.000                             : :Chapter 10
    00:50:00.000                             : :Chapter 11
    00:55:00.000                             : :Chapter 12
    01:00:00.000                             : :Chapter 13
    01:05:00.000                             : :Chapter 14
    01:10:00.000                             : :Chapter 15
    01:15:00.000                             : :Chapter 16
    01:20:00.000                             : :Chapter 17
    01:25:00.000                             : :Chapter 18
    01:30:00.000                             : :Chapter 19
    01:35:00.000                             : :Chapter 20
    01:40:00.000                             : :Chapter 21
    01:45:00.000                             : :Chapter 22
    01:50:00.000                             : :Chapter 23Свернуть


    Скриншоты (увеличить)
    [screen]http://i1.sendpic.org/i/20/20AQv5VzV3WPlsPmEvlul4woi6F.png[/screen][screen]http://i2.sendpic.org/i/xp/xpaCxXiqpOc27pSUD9UKpq97bQ5.png[/screen][screen]http://i2.sendpic.org/i/uL/uLh75yzfxbj5F5ACt9oLYCt0dQn.png[/screen][screen]http://i2.sendpic.org/i/8U/8Uu2XIumXPGgOYB7bSZwoEz9aFo.png[/screen][screen]http://i2.sendpic.org/i/ck/ck07Rz73YekZFp4PxtqgncAqrjP.png[/screen][screen]http://i1.sendpic.org/i/py/pyux1DUPq2MlfRXeGT0TME0SruM.png[/screen][screen]http://i1.sendpic.org/i/3p/3p6P3BlVD90ILvqz9b1vkHs9Cm6.png[/screen][screen]http://i2.sendpic.org/i/7j/7jJfVS0ptvxeBkrrrm7zHBZb8DH.png[/screen]
    Свернуть
    Инструкция по скачиванию
     1  Качаем uTorrent версии 2.0 и выше
     2  После установки, жмем выше под постером на ссылку Скачать [MediaGet] или Скачать .torrent
     3  Открываем скачанный файл через соответствующий клиент: MediaGet или uTorrent
     4  Ждем пока подключатся участники
     5  Качаем
    Комментарии о  Манон с источника / Manon des sources | BDRip 720p 
    Ближайшее в кино
    Вверх