• Игры для PS4
  • Игры для PS3
  • Игры для XBOX360
  • Игры для PC
  • Игры для PS2
  • Игры для PSP
  • Для телефонов
  • Музыка
  • Книги / Журналы
  • Обои
  • Опрос
    Удобен ли сайт в использовании?
      0
    • Очень удобен, все понятно1,1,false,300,full
    • Удобен1,2,false,300,full
    • Средне1,3,false,300,full
    • Неудобен, трудно ориентироваться1,4,false,300,full
    • Совсем неудобен1,5,false,300,full
    Статистика
    Всего онлайн -
    Гостей -
    Пользователей -
    Короли трекера
    Благодарности () Закрыть
    Год выхода:  1985
    Страна: США, Hemdale, Fox Films Ltd., Cinema "84/Greenberg Brothers Partnership
    Жанр:  Комедия, ужасы
    Продолжительность: 01:30:39
    Перевод: Профессиональный многоголосый, профессиональный двухголосый, авторский, любительский одноголосый

    Режиссер: Дэн О"Бэннон
    В главных ролях: Клу Гулагер, Джеймс Карен, Дон Кэлфа, Том Мэтьюз, Беверли Рэндольф, Джон Филбин, Джуэл Шепард

    Описание: На захолустном медицинском складе хранились контейнеры с зомби, по ошибке попавшие туда много лет назад. В один далеко не прекрасный день герметичность упаковки была нарушена, ядовитый газ вырвался наружу, и вот уже мертвецы с соседнего кладбища покидают свое тихое пристанище, чтобы полакомиться мозгом живых…

    Качество: BDRip 1080p
    Видео: HEVC/H.265, 1920x1040, ~11.9 Mbps
    Аудио 1: AC3, 2 ch, 192 Kbps - MVO, (Студия СВ-Дубль по заказу Медиа-Фильм)
    Аудио 2: AC3, 2 ch, 192 Kbps - DVO, (НТВ)
    Аудио 3: AC3, 6 ch, 640 Kbps - AVO, (Живов)
    Аудио 4: AC3, 6 ch, 448 Kbps - АVO, (Филонов)
    Аудио 5: AC3, 6 ch, 384 Kbps - AVO, (Дьяков)
    Аудио 6: AC3, 6 ch, 384 Kbps - AVO, (Либергал)
    Аудио 7: AC3, 2 ch, 192 Kbps - AVO, (Сонькин)
    Аудио 8: AC3, 2 ch, 192 Kbps - VO, (Грузин)
    Аудио 9: AC3, 2 ch, 192 Kbps - VO, (Вельзевул1984)
    Аудио 10: AC3, 2 ch, 192 Kbps - VO, (Неизвестный)
    Аудио 11:  AC3, 2 ch, 192 Kbps - VO, (Неизвестный#2)
    Субтитры: Русские (форсированные, полные), английские

    [img]https://d.radikal.ru/d04/1810/26/868b0347e583.gif[/img]

    Mediainfo
    Общее
    Уникальный идентификатор                 : 269527803997787095450644752546788730823 (0xCAC52AB71A51E93884D582268D86E7C7)
    Полное имя                               : F:РАЗДАЧИВОЗВРАЩЕНИЕ ЖИВЫХ МЕРТВЕЦОВ 1.1985.BDRip.Remastered. 1080p. HEVC.mkv
    Формат                                   : Matroska
    Версия формата                           : Version 4 / Version 2
    Размер файла                             : 9,76 Гбайт
    Продолжительность                        : 1 ч. 30 м.
    Общий поток                              : 15,4 Мбит/сек
    Программа кодирования                    : XviD4PSP 7.0.456 DAILY
    Библиотека кодирования                   : Lavf57.71.100
    ErrorDetectionType                       : Per level 1
    ENCODING_INFO                            : MATROSKA,WEBM > MKV / H264 > X265 CRF 18.5 Placebo / AC3 > COPY Безопасное / AC3 > COPY Безопасное / AC3 > COPY Безопасное / AC3 > COPY Безопасное / AC3 > COPY Безопасное / AC3 > COPY Безопасное / AC3 > COPY Безопасное / AC3 > COPY Безопасное / AC3 > COPY Безопасное / AC3 > COPY Безопасное / AC3 > COPY Безопасное

    Видео
    Идентификатор                            : 1
    Формат                                   : HEVC
    Формат/Информация                        : High Efficiency Video Coding
    Профиль формата                          : Main 10@L5.1@High
    Идентификатор кодека                     : V_MPEGH/ISO/HEVC
    Продолжительность                        : 1 ч. 30 м.
    Битрейт                                  : 11,9 Мбит/сек
    Ширина                                   : 1920 пикселей
    Высота                                   : 1040 пикселей
    Соотношение сторон                       : 1,85:1
    Режим частоты кадров                     : Постоянный
    Частота кадров                           : 23,976 (24000/1001) кадра/сек
    Цветовое пространство                    : YUV
    Субдискретизация насыщенности            : 4:2:0
    Битовая глубина                          : 10 бит
    Бит/(Пиксели*Кадры)                      : 0.249
    Размер потока                            : 7,54 Гбайт (77%)
    Заголовок                                : The Return of the Living Dead (1984) Remastered
    Библиотека кодирования                   : x265 2.8+19-bcdc610cf5f0:[Windows][GCC 7.3.0][64 bit] 10bit
    Настройки программы                      : cpuid=1049583 / frame-threads=9 / numa-pools=8 / wpp / no-pmode / no-pme / no-psnr / no-ssim / log-level=3 / input-csp=1 / input-res=1920x1040 / interlace=0 / total-frames=0 / level-idc=51 / high-tier=1 / uhd-bd=0 / ref=5 / allow-non-conformance / no-repeat-headers / annexb / no-aud / no-hrd / info / hash=0 / no-temporal-layers / open-gop / min-keyint=24 / keyint=240 / gop-lookahead=0 / bframes=8 / b-adapt=2 / b-pyramid / bframe-bias=0 / rc-lookahead=60 / lookahead-slices=6 / scenecut=40 / radl=0 / no-intra-refresh / ctu=64 / min-cu-size=8 / no-rect / no-amp / max-tu-size=32 / tu-inter-depth=1 / tu-intra-depth=1 / limit-tu=0 / rdoq-level=0 / dynamic-rd=0.00 / no-ssim-rd / signhide / no-tskip / nr-intra=0 / nr-inter=0 / no-constrained-intra / strong-intra-smoothing / max-merge=2 / limit-refs=3 / no-limit-modes / me=3 / subme=7 / merange=92 / temporal-mvp / weightp / weightb / no-analyze-src-pics / deblock=-2:-2 / sao / no-sao-non-deblock / rd=3 / no-early-skip / rskip / no-fast-intra / no-tskip-fast / no-cu-lossless / no-b-intra / no-splitrd-skip / rdpenalty=0 / psy-rd=2.00 / psy-rdoq=0.00 / no-rd-refine / no-lossless / cbqpoffs=0 / crqpoffs=0 / rc=crf / crf=18.5 / qcomp=0.60 / qpstep=4 / stats-write=0 / stats-read=0 / vbv-maxrate=160000 / vbv-bufsize=160000 / vbv-init=0.9 / crf-max=18.5 / crf-min=0.0 / ipratio=1.40 / pbratio=1.30 / aq-mode=1 / aq-strength=1.00 / cutree / zone-count=0 / no-strict-cbr / qg-size=32 / no-rc-grain / qpmax=69 / qpmin=0 / no-const-vbv / sar=1 / overscan=0 / videoformat=5 / range=0 / colorprim=2 / transfer=2 / colormatrix=2 / chromaloc=0 / display-window=0 / max-cll=0,0 / min-luma=0 / max-luma=1023 / log2-max-poc-lsb=8 / vui-timing-info / vui-hrd-info / slices=1 / no-opt-qp-pps / no-opt-ref-list-length-pps / no-multi-pass-opt-rps / scenecut-bias=0.05 / no-opt-cu-delta-qp / no-aq-motion / no-hdr / no-hdr-opt / no-dhdr10-opt / no-idr-recovery-sei / analysis-reuse-level=5 / scale-factor=0 / refine-intra=0 / refine-inter=0 / refine-mv=0 / no-limit-sao / ctu-info=0 / no-lowpass-dct / refine-mv-type=0 / copy-pic=1 / max-ausize-factor=1.0 / no-dynamic-refine / no-single-sei
    Язык                                     : English
    Default                                  : Да
    Forced                                   : Нет

    Аудио #1
    Идентификатор                            : 2
    Формат                                   : AC-3
    Формат/Информация                        : Audio Coding 3
    Идентификатор кодека                     : A_AC3
    Продолжительность                        : 1 ч. 30 м.
    Вид битрейта                             : Постоянный
    Битрейт                                  : 192 Кбит/сек
    Каналы                                   : 2 канала
    Расположение каналов                     : Front: L R
    Частота                                  : 48,0 КГц
    Частота кадров                           : 31,250 кадров/сек (1536 SPF)
    Битовая глубина                          : 16 бит
    Метод сжатия                             : С потерями
    Размер потока                            : 124 Мбайт (1%)
    Заголовок                                : MVO Студия СВ-Дубль по заказу Медиа-Фильм
    Язык                                     : Russian
    ServiceKind/                       : Complete Main
    Default                                  : Да
    Forced                                   : Нет

    Аудио #2
    Идентификатор                            : 3
    Формат                                   : AC-3
    Формат/Информация                        : Audio Coding 3
    Идентификатор кодека                     : A_AC3
    Продолжительность                        : 1 ч. 30 м.
    Вид битрейта                             : Постоянный
    Битрейт                                  : 192 Кбит/сек
    Каналы                                   : 2 канала
    Расположение каналов                     : Front: L R
    Частота                                  : 48,0 КГц
    Частота кадров                           : 31,250 кадров/сек (1536 SPF)
    Битовая глубина                          : 16 бит
    Метод сжатия                             : С потерями
    Размер потока                            : 124 Мбайт (1%)
    Заголовок                                : DVO НТВ
    Язык                                     : Russian
    ServiceKind/                       : Complete Main
    Default                                  : Нет
    Forced                                   : Нет

    Аудио #3
    Идентификатор                            : 4
    Формат                                   : AC-3
    Формат/Информация                        : Audio Coding 3
    Идентификатор кодека                     : A_AC3
    Продолжительность                        : 1 ч. 30 м.
    Вид битрейта                             : Постоянный
    Битрейт                                  : 640 Кбит/сек
    Каналы                                   : 6 каналов
    Расположение каналов                     : Front: L C R, Side: L R, LFE
    Частота                                  : 48,0 КГц
    Частота кадров                           : 31,250 кадров/сек (1536 SPF)
    Битовая глубина                          : 16 бит
    Метод сжатия                             : С потерями
    Размер потока                            : 415 Мбайт (4%)
    Заголовок                                : AVO Живов Юрий Викторович
    Язык                                     : Russian
    ServiceKind/                      : Complete Main
    Default                                  : Нет
    Forced                                   : Нет

    Аудио #4
    Идентификатор                            : 5
    Формат                                   : AC-3
    Формат/Информация                        : Audio Coding 3
    Идентификатор кодека                     : A_AC3
    Продолжительность                        : 1 ч. 30 м.
    Вид битрейта                             : Постоянный
    Битрейт                                  : 448 Кбит/сек
    Каналы                                   : 6 каналов
    Расположение каналов                     : Front: L C R, Side: L R, LFE
    Частота                                  : 48,0 КГц
    Частота кадров                           : 31,250 кадров/сек (1536 SPF)
    Битовая глубина                          : 16 бит
    Метод сжатия                             : С потерями
    Размер потока                            : 290 Мбайт (3%)
    Заголовок                                : AVO Филонов Константин (VOXSOLUS)
    Язык                                     : Russian
    ServiceKind/                       : Complete Main
    Default                                  : Нет
    Forced                                   : Нет

    Аудио #5
    Идентификатор                            : 6
    Формат                                   : AC-3
    Формат/Информация                        : Audio Coding 3
    Идентификатор кодека                     : A_AC3
    Продолжительность                        : 1 ч. 30 м.
    Вид битрейта                             : Постоянный
    Битрейт                                  : 384 Кбит/сек
    Каналы                                   : 6 каналов
    Расположение каналов                     : Front: L C R, Side: L R, LFE
    Частота                                  : 48,0 КГц
    Частота кадров                           : 31,250 кадров/сек (1536 SPF)
    Битовая глубина                          : 16 бит
    Метод сжатия                             : С потерями
    Размер потока                            : 249 Мбайт (2%)
    Заголовок                                : AVO Дьяков Сергей
    Язык                                     : Russian
    ServiceKind/                       : Complete Main
    Default                                  : Нет
    Forced                                   : Нет

    Аудио #6
    Идентификатор                            : 7
    Формат                                   : AC-3
    Формат/Информация                        : Audio Coding 3
    Идентификатор кодека                     : A_AC3
    Продолжительность                        : 1 ч. 30 м.
    Вид битрейта                             : Постоянный
    Битрейт                                  : 384 Кбит/сек
    Каналы                                   : 6 каналов
    Расположение каналов                     : Front: L C R, Side: L R, LFE
    Частота                                  : 48,0 КГц
    Частота кадров                           : 31,250 кадров/сек (1536 SPF)
    Битовая глубина                          : 16 бит
    Метод сжатия                             : С потерями
    Размер потока                            : 249 Мбайт (2%)
    Заголовок                                : AVO Либергал Григорий Александрович
    Язык                                     : Russian
    ServiceKind/                       : Complete Main
    Default                                  : Нет
    Forced                                   : Нет

    Аудио #7
    Идентификатор                            : 8
    Формат                                   : AC-3
    Формат/Информация                        : Audio Coding 3
    Идентификатор кодека                     : A_AC3
    Продолжительность                        : 1 ч. 30 м.
    Вид битрейта                             : Постоянный
    Битрейт                                  : 192 Кбит/сек
    Каналы                                   : 2 канала
    Расположение каналов                     : Front: L R
    Частота                                  : 48,0 КГц
    Частота кадров                           : 31,250 кадров/сек (1536 SPF)
    Битовая глубина                          : 16 бит
    Метод сжатия                             : С потерями
    Размер потока                            : 124 Мбайт (1%)
    Заголовок                                : AVO Сонькин Владимир
    Язык                                     : Russian
    ServiceKind/                       : Complete Main
    Default                                  : Нет
    Forced                                   : Нет

    Аудио #8
    Идентификатор                            : 9
    Формат                                   : AC-3
    Формат/Информация                        : Audio Coding 3
    Идентификатор кодека                     : A_AC3
    Продолжительность                        : 1 ч. 30 м.
    Вид битрейта                             : Постоянный
    Битрейт                                  : 192 Кбит/сек
    Каналы                                   : 2 канала
    Расположение каналов                     : Front: L R
    Частота                                  : 48,0 КГц
    Частота кадров                           : 31,250 кадров/сек (1536 SPF)
    Битовая глубина                          : 16 бит
    Метод сжатия                             : С потерями
    Размер потока                            : 124 Мбайт (1%)
    Заголовок                                : AVO Грузин
    Язык                                     : Russian
    ServiceKind/                       : Complete Main
    Default                                  : Нет
    Forced                                   : Нет

    Аудио #9
    Идентификатор                            : 10
    Формат                                   : AC-3
    Формат/Информация                        : Audio Coding 3
    Идентификатор кодека                     : A_AC3
    Продолжительность                        : 1 ч. 30 м.
    Вид битрейта                             : Постоянный
    Битрейт                                  : 192 Кбит/сек
    Каналы                                   : 2 канала
    Расположение каналов                     : Front: L R
    Частота                                  : 48,0 КГц
    Частота кадров                           : 31,250 кадров/сек (1536 SPF)
    Битовая глубина                          : 16 бит
    Метод сжатия                             : С потерями
    Размер потока                            : 124 Мбайт (1%)
    Заголовок                                : VO Вельзевул1984
    Язык                                     : Russian
    ServiceKind/                       : Complete Main
    Default                                  : Нет
    Forced                                   : Нет

    Аудио #10
    Идентификатор                            : 11
    Формат                                   : AC-3
    Формат/Информация                        : Audio Coding 3
    Идентификатор кодека                     : A_AC3
    Продолжительность                        : 1 ч. 30 м.
    Вид битрейта                             : Постоянный
    Битрейт                                  : 192 Кбит/сек
    Каналы                                   : 2 канала
    Расположение каналов                     : Front: L R
    Частота                                  : 48,0 КГц
    Частота кадров                           : 31,250 кадров/сек (1536 SPF)
    Битовая глубина                          : 16 бит
    Метод сжатия                             : С потерями
    Размер потока                            : 124 Мбайт (1%)
    Заголовок                                : AVO Неизвестный
    Язык                                     : Russian
    ServiceKind/                       : Complete Main
    Default                                  : Нет
    Forced                                   : Нет

    Аудио #11
    Идентификатор                            : 12
    Формат                                   : AC-3
    Формат/Информация                        : Audio Coding 3
    Идентификатор кодека                     : A_AC3
    Продолжительность                        : 1 ч. 30 м.
    Вид битрейта                             : Постоянный
    Битрейт                                  : 192 Кбит/сек
    Каналы                                   : 2 канала
    Расположение каналов                     : Front: L R
    Частота                                  : 48,0 КГц
    Частота кадров                           : 31,250 кадров/сек (1536 SPF)
    Битовая глубина                          : 16 бит
    Метод сжатия                             : С потерями
    Размер потока                            : 124 Мбайт (1%)
    Заголовок                                : AVO Неизвестный#2
    Язык                                     : Russian
    ServiceKind/                       : Complete Main
    Default                                  : Нет
    Forced                                   : Нет

    Меню
    00:00:00.000                             : :00:00:00.000
    00:10:29.295                             : :00:10:29.295
    00:19:01.849                             : :00:19:01.849
    00:26:58.492                             : :00:26:58.492
    00:33:37.015                             : :00:33:37.015
    00:39:19.649                             : :00:39:19.649
    00:46:37.670                             : :00:46:37.670
    00:53:10.562                             : :00:53:10.562
    00:57:40.040                             : :00:57:40.040
    01:02:36.753                             : :01:02:36.753
    01:09:10.145                             : :01:09:10.146
    01:17:15.214                             : :01:17:15.214Свернуть


    [img]https://d.radikal.ru/d16/1812/ca/47dcafae45d2.png[/img][img]https://c.radikal.ru/c12/1812/16/553715f83088.png[/img][img]https://c.radikal.ru/c11/1812/52/2b9e0cfb4ab9.png[/img][img]https://b.radikal.ru/b20/1812/59/da92611174a8.png[/img]
    Похожие раздачи Искать похожие
    Инструкция по скачиванию
     1  Качаем uTorrent версии 2.0 и выше
     2  После установки, жмем выше под постером на ссылку Скачать [MediaGet] или Скачать .torrent
     3  Открываем скачанный файл через соответствующий клиент: MediaGet или uTorrent
     4  Ждем пока подключатся участники
     5  Качаем
    Комментарии о  Возвращение живых мертвецов / The Return of the Living Dead | BDRip-HEVC 1080p 
    Ближайшее в кино
    Вверх