• Игры для PS4
  • Игры для PS3
  • Игры для XBOX360
  • Игры для PC
  • Игры для PS2
  • Игры для PSP
  • Для телефонов
  • Музыка
  • Книги / Журналы
  • Обои
  • Опрос
    Удобен ли сайт в использовании?
      0
    • Очень удобен, все понятно1,1,false,300,full
    • Удобен1,2,false,300,full
    • Средне1,3,false,300,full
    • Неудобен, трудно ориентироваться1,4,false,300,full
    • Совсем неудобен1,5,false,300,full
    Статистика
    Всего онлайн -
    Гостей -
    Пользователей -
    Короли трекера
    Благодарности () Закрыть
    Информация о фильме
    Название: Веб-камера
    Оригинальное название: Cam
    Год выхода: 2018
    Жанр:  Ужасы, триллер, детектив
    Режиссер: Даниэль Голдхабер
    В ролях: Мадлен Брюэр, Патрик Дарро, Мелора Уолтерс, Девин Друид, Имани Хаким, Майкл Демпси, Флора Диаз, Саманта Робинсон, Джессика Паркер Кеннеди

    О фильме :
    Элис работает веб-моделью в эротическом чате и неплохо зарабатывает. Девушка одержима идеей стать лучшей в этом деле и для начала войти в топ-50 моделей сайта, для чего устраивает и экстремальные представления, на которые решится не каждая. Однажды, когда цель уже почти достигнута, Элис обнаруживает, что не может войти в свой аккаунт, а вместо неё онлайн выходит точная её копия.



    Страна: США
    Студия: Blumhouse Productions, Divide / Conquer, Gunpowder & Sky
    Продолжительность: 01:34:58
    Перевод: Любительский (двухголосый, закадровый) fennec studio

    Файл
    Формат: MKV
    Качество: WEBRip-AVC
    Видео: MPEG-4 AVC, 768x432, - 1021 Кбит/с
    Аудио: [img]http://i93.fastpic.ru/big/2017/0727/c0/4b72f0369a3393219ed5935e91fc15c0.gif[/img] AAC-HE, 2 ch, - 76 Кбит/с
    Субтитры: Русские, английские

    MI
    Общее
    Уникальный идентификатор : 206234546475916319334924821251844915387 (0x9B275430555850E5A3215EE32ECAC0BB)
    Полное имя : D:MOVIESCam.2018.WEBRip-AVC.ExKinoRay.mkv
    Формат : Matroska
    Версия формата : Version 4 / Version 2
    Размер файла : 736 Мбайт
    Продолжительность : 1 ч. 34 м.
    Общий поток : 1084 Кбит/сек
    Дата кодирования : UTC 2018-12-03 15:32:24
    Программа кодирования : mkvmerge v15.0.0 ("Duel with the Devil") 64-bit
    Библиотека кодирования : libebml v1.3.5 + libmatroska v1.4.5
    Обложка : Yes
    Attachments : cover.jpg

    Видео
    Идентификатор : 1
    Формат : AVC
    Формат/Информация : Advanced Video Codec
    Профиль формата : High@L4.1
    Параметр CABAC формата : Да
    Параметр RefFrames формата : 12 кадров
    Идентификатор кодека : V_MPEG4/ISO/AVC
    Продолжительность : 1 ч. 34 м.
    Битрейт : 1021 Кбит/сек
    Ширина : 768 пикселей
    Высота : 432 пикселя
    Соотношение сторон : 16:9
    Режим частоты кадров : Постоянный
    Частота кадров : 23,976 (24000/1001) кадра/сек
    Цветовое пространство : YUV
    Субдискретизация насыщенности : 4:2:0
    Битовая глубина : 8 бит
    Тип развёртки : Прогрессивная
    Бит/(Пиксели*Кадры) : 0.128
    Размер потока : 683 Мбайт (93%)
    Библиотека кодирования : x264 core 152 r2851kMod ba24899
    Настройки программы : cabac=1 / ref=12 / deblock=1:-3:-3 / analyse=0x3:0x133 / me=umh / subme=10 / psy=1 / fade_compensate=0.00 / psy_rd=1.00:0.14 / mixed_ref=1 / me_range=32 / chroma_me=1 / trellis=2 / 8x8dct=1 / cqm=0 / deadzone=21,11 / fast_pskip=0 / chroma_qp_offset=-3 / threads=6 / lookahead_threads=1 / sliced_threads=0 / nr=0 / decimate=0 / interlaced=0 / bluray_compat=0 / constrained_intra=0 / bframes=11 / b_pyramid=2 / b_adapt=2 / b_bias=0 / direct=3 / weightb=1 / open_gop=0 / weightp=2 / keyint=240 / keyint_min=23 / scenecut=40 / intra_refresh=0 / rc_lookahead=40 / rc=2pass / mbtree=1 / bitrate=1021 / ratetol=1.0 / qcomp=0.60 / qpmin=0 / qpmax=69 / qpstep=4 / cplxblur=20.0 / qblur=0.5 / ip_ratio=1.40 / aq=3:1.00
    Default : Да
    Forced : Нет

    Аудио
    Идентификатор : 2
    Формат : AAC
    Формат/Информация : Advanced Audio Codec
    Профиль формата : HE-AAC / LC
    Идентификатор кодека : A_AAC
    Продолжительность : 1 ч. 34 м.
    Битрейт : 76,0 Кбит/сек
    Каналы : 2 канала
    Расположение каналов : Front: L R
    Частота : 48,0 КГц / 24,0 КГц
    Частота кадров : 23,438 кадра/сек (1024 SPF)
    Метод сжатия : С потерями
    Задержка видео : 31 мс.
    Размер потока : 51,6 Мбайт (7%)
    Язык : Russian
    Default : Да
    Forced : Нет

    Текст #1
    Идентификатор : 3
    Формат : UTF-8
    Идентификатор кодека : S_TEXT/UTF8
    Идентификатор кодека/Информация : UTF-8 Plain Text
    Продолжительность : 1 ч. 33 м.
    Битрейт : 78 бит/сек
    ElementCount : 1328
    Размер потока : 53,7 Кбайт (0%)
    Заголовок : Russian
    Язык : Russian
    Default : Нет
    Forced : Нет

    Текст #2
    Идентификатор : 4
    Формат : UTF-8
    Идентификатор кодека : S_TEXT/UTF8
    Идентификатор кодека/Информация : UTF-8 Plain Text
    Продолжительность : 1 ч. 31 м.
    Битрейт : 61 бит/сек
    ElementCount : 1434
    Размер потока : 41,1 Кбайт (0%)
    Заголовок : English
    Язык : English
    Default : Нет
    Forced : Нет
    Свернуть


    Скриншоты

    [screen]http://img14.lostpic.net/2018/12/03/c695e8e4a5cfa73d114f3a28ab3623fc.png[/screen][screen]http://img14.lostpic.net/2018/12/03/61c0226e0653e08c988801c654814ecf.png[/screen][screen]http://img14.lostpic.net/2018/12/03/367e77d77a1207778dfb4a57756f1e7e.png[/screen][screen]http://img14.lostpic.net/2018/12/03/0515ee64f17d87597a9bed0a3048381d.png[/screen][screen]http://img14.lostpic.net/2018/12/03/0803c1682886c31416a2fe7750852831.png[/screen][screen]http://img14.lostpic.net/2018/12/03/c46fe4b7a29c9e1ab708d32670f927e5.png[/screen][screen]http://img14.lostpic.net/2018/12/03/eb4ab3f9fb33bf79de8049aa8158fdd6.png[/screen][screen]http://img14.lostpic.net/2018/12/03/e783ba462165a8b387ee46f6c05f3cc9.png[/screen]
    Свернуть


    [img]http://i101.fastpic.ru/big/2018/0205/db/2bb5d8d6418a0fdc34277325cb111edb.gif[/img][img]http://i92.fastpic.ru/big/2017/0727/ee/d5deb5b73669b4c45974c6b5d6c309ee.gif[/img] [img]http://img12.lostpic.net/2018/03/09/13af6981458d1d0b6a9d5e5286e0688e.gif[/img][img]http://i92.fastpic.ru/big/2017/0727/34/cf9a17c70dfe7fe87e42af3f9f29e734.gif[/img]
    Похожие раздачи Искать похожие
    Инструкция по скачиванию
     1  Качаем uTorrent версии 2.0 и выше
     2  После установки, жмем выше под постером на ссылку Скачать [MediaGet] или Скачать .torrent
     3  Открываем скачанный файл через соответствующий клиент: MediaGet или uTorrent
     4  Ждем пока подключатся участники
     5  Качаем
    Комментарии о  Веб-камера / Cam | WEBRip-AVC 
    Ближайшее в кино
    Вверх