• Игры для PS4
  • Игры для PS3
  • Игры для XBOX360
  • Игры для PC
  • Игры для PS2
  • Игры для PSP
  • Для телефонов
  • Музыка
  • Книги / Журналы
  • Обои
  • Опрос
    Откуда Вы о нас узнали?
      0
    • От знакомых2,1,false,300,full
    • Из социальных сетей2,2,false,300,full
    • Из поисковых систем2,3,false,300,full
    • Другое2,4,false,300,full
    Статистика
    Всего онлайн -
    Гостей -
    Пользователей -
    Короли трекера
    Благодарности () Закрыть
    Информация о фильме
    Название: Русалка. Озеро мертвых
    Год выхода: 2018
    Жанр: Фэнтези, ужасы
    Режиссер: Святослав Подгаевский
    В ролях: Виктория Агалакова, Ефим Петрунин, Никита Еленев, Сесиль Плеже, Игорь Хрипунов, Софья Шидловская, Дарья Ярцева, Дмитрий Ярцев, Алла Артамонова, Эмиль Салес



    О фильме: Встреча со странной девушкой на затерянном лесном озере и её поцелуй резко меняют жизнь Ромы. Об этой встрече он очень скоро пожалеет: неизвестный недуг высасывает из него все жизненные силы. Марина готова на всё, чтобы освободить жениха от мистического морока. Что окажется сильнее: проклятье прошлого или настоящая любовь?

    Страна: Россия
    Студия: СТГ Синема, QS FILMS, Централ Партнершип, Киностудия КИТ
    Продолжительность: 01:26:59
    Язык: Русский

    Качество: BDRemux 1080p
    Видео: MPEG-4 AVC, 1920x1080, 21 Mbit/s, 23.976 fps
    Звук:
    Аудио: 48 kHz, DTS-HD MA, 5.1, 2000 Kbps | RUS |[img]http://img11.lostpic.net/2018/08/13/7c2ebc4025c59bfa2d99e99b51a513dc.png[/img]

    [img]http://img14.lostpic.net/2018/12/03/c1483a0125109726edc55792c76e27ad.png[/img][img]http://img14.lostpic.net/2018/12/03/e66bd0d9f2fd216d5cf513b76d09d3df.png[/img][img]http://img14.lostpic.net/2018/12/03/155434548651e5c70f5db3ced936aff1.png[/img][img]http://img14.lostpic.net/2018/12/03/18434242b0012e915d0a5bd8e9cbaea3.png[/img][img]http://img14.lostpic.net/2018/12/03/18434242b0012e915d0a5bd8e9cbaea3.png[/img]

    MI
    General
    Unique ID                   : 62150232014299326776803608691167216037 (0x2EC1B304957CE87E5AA7EF4B715041A5)
    Complete name               : D:Video111The.Mermaid.Lake.of.the.Dead.2018.BDREMUX.1080p.selezen.mkv
    Format                      : Matroska
    Format version              : Version 4
    File size                   : 14.0 GiB
    Duration                    : 1 h 26 min
    Overall bit rate mode       : Variable
    Overall bit rate            : 23.0 Mb/s
    Movie name                  : The Mermaid Lake of the Dead 2018 From селезень
    Encoded date                : UTC 2018-12-03 21:00:30
    Writing application         : mkvmerge v29.0.0 ("Like It Or Not") 64-bit
    Writing library             : libebml v1.3.6 + libmatroska v1.4.9

    Video
    ID                          : 1
    Format                      : AVC
    Format/Info                 : Advanced Video Codec
    Format profile              : High@L4.1
    Format settings             : CABAC / 3 Ref Frames
    Format settings, CABAC      : Yes
    Format settings, ReFrames   : 3 frames
    Codec ID                    : V_MPEG4/ISO/AVC
    Duration                    : 1 h 26 min
    Bit rate mode               : Variable
    Bit rate                    : 21.0 Mb/s
    Maximum bit rate            : 35.0 Mb/s
    Width                       : 1 920 pixels
    Height                      : 1 080 pixels
    Display aspect ratio        : 16:9
    Frame rate mode             : Constant
    Frame rate                  : 23.976 (24000/1001) FPS
    Color space                 : YUV
    Chroma subsampling          : 4:2:0
    Bit depth                   : 8 bits
    Scan type                   : Progressive
    Bits/(Pixel*Frame)          : 0.423
    Stream size                 : 12.8 GiB (91%)
    Language                    : German
    Default                     : Yes
    Forced                      : No

    Audio
    ID                          : 2
    Format                      : DTS XLL
    Format/Info                 : Digital Theater Systems
    Commercial name             : DTS-HD Master Audio
    Codec ID                    : A_DTS
    Duration                    : 1 h 26 min
    Bit rate mode               : Variable
    Bit rate                    : 2 000 kb/s
    Channel(s)                  : 6 channels
    Channel layout              : C L R Ls Rs LFE
    Sampling rate               : 48.0 kHz
    Frame rate                  : 93.750 FPS (512 SPF)
    Bit depth                   : 16 bits
    Compression mode            : Lossless
    Stream size                 : 1.22 GiB (9%)
    Language                    : Russian
    Default                     : Yes
    Forced                      : Yes

    Menu
    00:00:00.000                : :Глава 01
    00:04:59.466                : :Глава 02
    00:14:02.091                : :Глава 03
    00:21:24.617                : :Глава 04
    00:29:42.823                : :Глава 05
    00:37:02.303                : :Глава 06
    00:45:11.125                : :Глава 07
    00:54:12.416                : :Глава 08
    00:59:30.400                : :Глава 09
    01:05:23.628                : :Глава 10
    01:13:29.989                : :Глава 11
    01:19:06.241                : :Глава 12Свернуть


    [img]http://lostpix.com/img/2017-03/22/pa3kns75lpl0e564ik1il8ow9.gif[/img]
    Похожие раздачи Искать похожие
    Инструкция по скачиванию
     1  Качаем uTorrent версии 2.0 и выше
     2  После установки, жмем выше под постером на ссылку Скачать [MediaGet] или Скачать .torrent
     3  Открываем скачанный файл через соответствующий клиент: MediaGet или uTorrent
     4  Ждем пока подключатся участники
     5  Качаем
    Комментарии о  Русалка. Озеро мертвых | BDRemux 1080p 
    Ближайшее в кино
    Вверх