• Игры для PS4
  • Игры для PS3
  • Игры для XBOX360
  • Игры для PC
  • Игры для PS2
  • Игры для PSP
  • Для телефонов
  • Музыка
  • Книги / Журналы
  • Обои
  • Опрос
    Откуда Вы о нас узнали?
      0
    • От знакомых2,1,false,300,full
    • Из социальных сетей2,2,false,300,full
    • Из поисковых систем2,3,false,300,full
    • Другое2,4,false,300,full
    Статистика
    Всего онлайн -
    Гостей -
    Пользователей -
    Короли трекера
    Благодарности () Закрыть
    Информация о фильме
    Название: Семейство Кардашьян
    Оригинальное название: Keeping Up with the Kardashians
    Год выпуска: 2018
    Жанр:  Реалити-шоу, драма
    Режиссер: Крис Рэй, Дэвид Брезенхэм
    В ролях: Хлоя Кардашьян, Кортни Кардашьян, Кимберли Кардашьян, Крис Дженнер, Кейтлин Дженнер, Кайли Дженнер, Кендалл Дженнер, Мэйсон Дэш Дисик, Малика, Ламар Одом

    О фильме:
    Хлоя тяжело переживает смерть отца. А вот ее сестру Кортни в замешательство приведет тест на беременность. Но волнения и трудности не заставляют членов семьи забывать о добрых делах, участвуя в благотворительной деятельности, семья помогает бездомному мужчине и казалось бы, все хорошо, но и здесь найдется место негативу — семейство оказывается вовлеченным в секс-скандал. Что дальше?

    [img]https://u.myshows.me/r/1129.png[/img]
    Страна: США
    Студия: Bunim-Murray Productions (BMP), Ryan Seacrest Productions
    Продолжительность: 15 x ~ 00:46:00
    Перевод: Любительский многоголосый [ColdFilm]

    Файл
    Кодек: x264 (AVC)
    Качество: WEBRip 720p
    Видео: 3500 Кбит/с, 1280x720, 29.970 fps
    Аудио: Русский (AC3, 2 ch, 128 Кбит/с)

    [img]http://s020.radikal.ru/i712/1701/ad/1bb0bd9bc94a.gif[/img]

    Скриншоты

    [screen]https://i2.imageban.ru/out/2018/09/21/c0b787c7c4554f751e44334f72ab2782.jpg[/screen][screen]https://i1.imageban.ru/out/2018/09/21/776aab498a233e69306d74b6f23fb8ad.jpg[/screen][screen]https://i4.imageban.ru/out/2018/09/21/dd894e6f5a546a705c359a45d5d51ce2.jpg[/screen][screen]https://i2.imageban.ru/out/2018/09/21/b8b3f7324d79d2001c327230df9aab71.jpg[/screen]

    Свернуть


    MI
    General
    Unique ID                   : 184858559809828595842826982896164785426 (0x8B1276AD455C85629ECEDCECA201CD12)
    Complete name               :Keeping.Up.with.the.Kardashians.S15E01.720p.ColdFilm.mkv
    Format                      : Matroska
    Format version              : Version 2
    File size                   : 1.15 GiB
    Duration                    : 44 min 12 s
    Overall bit rate            : 3 712 kb/s
    Encoded date                : UTC 2018-09-20 10:02:45 / UTC 2017-11-20 18:25:40
    Writing application         : mkvmerge v3.3.0 ("Language") built on Mar 24 2010 14:59:24
    Writing library             : libebml v0.8.0 + libmatroska v0.9.0 / Lavf54.63.104

    Video
    ID                          : 1
    Format                      : AVC
    Format/Info                 : Advanced Video Codec
    Format profile              : Main@L3.1
    Format settings             : CABAC / 1 Ref Frames
    Format settings, CABAC      : Yes
    Format settings, ReFrames   : 1 frame
    Codec ID                    : V_MPEG4/ISO/AVC
    Duration                    : 44 min 12 s
    Bit rate                    : 3 500 kb/s
    Width                       : 1 280 pixels
    Height                      : 720 pixels
    Display aspect ratio        : 16:9
    Frame rate mode             : Constant
    Frame rate                  : 25.000 FPS
    Color space                 : YUV
    Chroma subsampling          : 4:2:0
    Bit depth                   : 8 bits
    Scan type                   : Progressive
    Bits/(Pixel*Frame)          : 0.152
    Stream size                 : 1.06 GiB (93%)
    Writing library             : x264 core 129
    Default                     : No
    Forced                      : No

    Audio
    ID                          : 2
    Format                      : AC-3
    Format/Info                 : Audio Coding 3
    Codec ID                    : A_AC3
    Duration                    : 44 min 12 s
    Bit rate mode               : Constant
    Bit rate                    : 192 kb/s
    Channel(s)                  : 2 channels
    Channel positions           : Front: L R
    Sampling rate               : 48.0 kHz
    Frame rate                  : 31.250 FPS (1536 SPF)
    Bit depth                   : 16 bits
    Compression mode            : Lossy
    Stream size                 : 60.7 MiB (5%)
    Service kind                : Complete Main
    Default                     : Yes
    Forced                      : No

    Свернуть
    Похожие раздачи Искать похожие
    Инструкция по скачиванию
     1  Качаем uTorrent версии 2.0 и выше
     2  После установки, жмем выше под постером на ссылку Скачать [MediaGet] или Скачать .torrent
     3  Открываем скачанный файл через соответствующий клиент: MediaGet или uTorrent
     4  Ждем пока подключатся участники
     5  Качаем
    Комментарии о  Семейство Кардашьян / Keeping Up with the Kardashians [Сезон 15 | 01-15 серии из 21] | WEBRip 720p 
    Ближайшее в кино
    Вверх