• Игры для PS4
  • Игры для PS3
  • Игры для XBOX360
  • Игры для PC
  • Игры для PS2
  • Игры для PSP
  • Для телефонов
  • Музыка
  • Книги / Журналы
  • Обои
  • Опрос
    Откуда Вы о нас узнали?
      0
    • От знакомых2,1,false,300,full
    • Из социальных сетей2,2,false,300,full
    • Из поисковых систем2,3,false,300,full
    • Другое2,4,false,300,full
    Статистика
    Всего онлайн -
    Гостей -
    Пользователей -
    Короли трекера
    Благодарности () Закрыть
    Информация о фильме
    Оригинальное название: Никто, кроме нас
    Год выпуска: 2018
    Жанр:  Мелодрама
    Режиссер: Рано Кубаева
    В ролях: Кристина Кузьмина, Наталья Ткаченко, Александр Кудренко, Геннадий Смирнов, Дарья Пармененкова, Андрис Булис, Надежда Мельникова, Мария Скуратова (II), Екатерина Белова (III)

    О фильме:
    Несмотря на то, что Вера и Люба – сёстры, они абсолютно разные. Для Веры главное в жизни – это работа. Она высококлассный хирург и отдает профессии все свое время и силы, жертвуя порой отношениями с дочерью и личным счастьем. Люба – домохозяйка. Всю себя она посвящает мужу и детям. Из-за разных взглядов на жизнь сестры постоянно ссорятся и уже практически не разговаривают друг с другом. Но внезапно все меняется! Оказывается, что Люба не нужна ни мужу, ни детям, которые устали от ее заботы. А Веру отстраняют от работы – ее предали коллеги, и ей грозит тюрьма. Теперь сестрам придется искать путь друг к другу, ведь никто кроме них самих им не поможет…

    Страна: Россия
    Студия: Беркана, Медиа-Арена
    Продолжительность: 2 х ~ 01:30:00
    Язык: Русский

    Файл
    Кодек: MPEG-4 AVC
    Качество: HDTVRip 1080p
    Видео: ~ 7080 Кбит/с, 1920x1080
    Звук: AC3, 2 ch, 192 Кбит/с

    Без рекламы. Возможно наличие "всплывающих" надписей.

    Инфо-файл



    MI
    Общее
    Уникальный идентификатор                 : 18532589699868855117239825493684740335 (0xDF13F37C9A3736D4F41A7DAB43D60EF)
    Полное имя                               : D:Никто кроме нас.2018.HDTVRip (1080p)1.Никто кроме нас.2018.HDTVRip (1080p).mkv
    Формат                                   : Matroska
    Версия формата                           : Version 4
    Размер файла                             : 4,56 Гбайт
    Продолжительность                        : 1 ч. 29 м.
    Общий поток                              : 7275 Кбит/сек
    Программа кодирования                    : XviD4PSP 7.0.459 DAILY
    Библиотека кодирования                   : Lavf57.71.100
    ErrorDetectionType                       : Per level 1
    ENCODING_INFO                            : MPEGTS > MKV Пользовательский / H264 > X264 VBR-2P 7080kbps HQ / MP2 > AC3 CBR 192kbps

    Видео
    Идентификатор                            : 1
    Формат                                   : AVC
    Формат/Информация                        : Advanced Video Codec
    Профиль формата                          : High@L4.1
    Настройки формата                        : CABAC / 4 Ref Frames
    Параметр CABAC формата                   : Да
    Параметр RefFrames формата               : 4 кадра
    Идентификатор кодека                     : V_MPEG4/ISO/AVC
    Продолжительность                        : 1 ч. 29 м.
    Битрейт                                  : 7080 Кбит/сек
    Ширина                                   : 1920 пикселей
    Высота                                   : 1080 пикселей
    Соотношение сторон                       : 16:9
    Режим частоты кадров                     : Постоянный
    Частота кадров                           : 25,000 кадров/сек
    Цветовое пространство                    : YUV
    Субдискретизация насыщенности            : 4:2:0
    Битовая глубина                          : 8 бит
    Тип развёртки                            : Прогрессивная
    Бит/(Пиксели*Кадры)                      : 0.137
    Размер потока                            : 4,35 Гбайт (95%)
    Библиотека кодирования                   : x264 core 157 r2901M 7d0ff22
    Настройки программы                      : cabac=1 / ref=4 / deblock=1:-3:-3 / analyse=0x3:0x113 / me=hex / subme=9 / psy=1 / psy_rd=1.00:0.20 / mixed_ref=1 / me_range=16 / chroma_me=1 / trellis=1 / 8x8dct=1 / cqm=0 / deadzone=21,11 / fast_pskip=1 / chroma_qp_offset=-3 / threads=5 / lookahead_threads=1 / sliced_threads=0 / nr=0 / decimate=1 / interlaced=0 / bluray_compat=0 / constrained_intra=0 / bframes=4 / b_pyramid=2 / b_adapt=2 / b_bias=0 / direct=3 / weightb=1 / open_gop=0 / weightp=2 / keyint=250 / keyint_min=25 / scenecut=40 / intra_refresh=0 / rc_lookahead=40 / rc=2pass / mbtree=1 / bitrate=7080 / ratetol=1.0 / qcomp=0.60 / qpmin=0 / qpmax=69 / qpstep=4 / cplxblur=20.0 / qblur=0.5 / ip_ratio=1.40 / aq=1:1.00
    Default                                  : Да
    Forced                                   : Нет

    Аудио
    Идентификатор                            : 2
    Формат                                   : AC-3
    Формат/Информация                        : Audio Coding 3
    Коммерческое название                    : Dolby Digital
    Идентификатор кодека                     : A_AC3
    Продолжительность                        : 1 ч. 29 м.
    Вид битрейта                             : Постоянный
    Битрейт                                  : 192 Кбит/сек
    Каналы                                   : 2 канала
    Channel layout                           : L R
    Частота                                  : 48,0 КГц
    Частота кадров                           : 31,250 кадров/сек (1536 SPF)
    Битовая глубина                          : 16 бит
    Метод сжатия                             : С потерями
    Размер потока                            : 123 Мбайт (3%)
    Язык                                     : Russian
    ServiceKind/String                       : Complete Main
    Default                                  : Да
    Forced                                   : Нет

    Общее
    Уникальный идентификатор                 : 193716406145930419459843202043937808585 (0x91BC6C382291D1C1274E9D0EE8F7E0C9)
    Полное имя                               : D:Никто кроме нас.2018.HDTVRip (1080p)2.Никто кроме нас.2018.HDTVRip (1080p).mkv
    Формат                                   : Matroska
    Версия формата                           : Version 4
    Размер файла                             : 4,48 Гбайт
    Продолжительность                        : 1 ч. 28 м.
    Общий поток                              : 7275 Кбит/сек
    Программа кодирования                    : XviD4PSP 7.0.459 DAILY
    Библиотека кодирования                   : Lavf57.71.100
    ErrorDetectionType                       : Per level 1
    ENCODING_INFO                            : MPEGTS > MKV Пользовательский / H264 > X264 VBR-2P 7080kbps HQ / MP2 > AC3 CBR 192kbps

    Видео
    Идентификатор                            : 1
    Формат                                   : AVC
    Формат/Информация                        : Advanced Video Codec
    Профиль формата                          : High@L4.1
    Настройки формата                        : CABAC / 4 Ref Frames
    Параметр CABAC формата                   : Да
    Параметр RefFrames формата               : 4 кадра
    Идентификатор кодека                     : V_MPEG4/ISO/AVC
    Продолжительность                        : 1 ч. 28 м.
    Битрейт                                  : 7080 Кбит/сек
    Ширина                                   : 1920 пикселей
    Высота                                   : 1080 пикселей
    Соотношение сторон                       : 16:9
    Режим частоты кадров                     : Постоянный
    Частота кадров                           : 25,000 кадров/сек
    Цветовое пространство                    : YUV
    Субдискретизация насыщенности            : 4:2:0
    Битовая глубина                          : 8 бит
    Тип развёртки                            : Прогрессивная
    Бит/(Пиксели*Кадры)                      : 0.137
    Размер потока                            : 4,27 Гбайт (95%)
    Библиотека кодирования                   : x264 core 157 r2901M 7d0ff22
    Настройки программы                      : cabac=1 / ref=4 / deblock=1:-3:-3 / analyse=0x3:0x113 / me=hex / subme=9 / psy=1 / psy_rd=1.00:0.20 / mixed_ref=1 / me_range=16 / chroma_me=1 / trellis=1 / 8x8dct=1 / cqm=0 / deadzone=21,11 / fast_pskip=1 / chroma_qp_offset=-3 / threads=5 / lookahead_threads=1 / sliced_threads=0 / nr=0 / decimate=1 / interlaced=0 / bluray_compat=0 / constrained_intra=0 / bframes=4 / b_pyramid=2 / b_adapt=2 / b_bias=0 / direct=3 / weightb=1 / open_gop=0 / weightp=2 / keyint=250 / keyint_min=25 / scenecut=40 / intra_refresh=0 / rc_lookahead=40 / rc=2pass / mbtree=1 / bitrate=7080 / ratetol=1.0 / qcomp=0.60 / qpmin=0 / qpmax=69 / qpstep=4 / cplxblur=20.0 / qblur=0.5 / ip_ratio=1.40 / aq=1:1.00
    Default                                  : Да
    Forced                                   : Нет

    Аудио
    Идентификатор                            : 2
    Формат                                   : AC-3
    Формат/Информация                        : Audio Coding 3
    Коммерческое название                    : Dolby Digital
    Идентификатор кодека                     : A_AC3
    Продолжительность                        : 1 ч. 28 м.
    Вид битрейта                             : Постоянный
    Битрейт                                  : 192 Кбит/сек
    Каналы                                   : 2 канала
    Channel layout                           : L R
    Частота                                  : 48,0 КГц
    Частота кадров                           : 31,250 кадров/сек (1536 SPF)
    Битовая глубина                          : 16 бит
    Метод сжатия                             : С потерями
    Размер потока                            : 121 Мбайт (3%)
    Язык                                     : Russian
    ServiceKind/String                       : Complete Main
    Default                                  : Да
    Forced                                   : Нет

    Общее
    Полное имя                               : D:Никто кроме нас.2018.HDTVRip (1080p)Никто кроме нас.2018.HDTVRip (1080p).torrent
    Размер файла                             : 45,6 КбайтСвернуть
    Похожие раздачи Искать похожие
    Инструкция по скачиванию
     1  Качаем uTorrent версии 2.0 и выше
     2  После установки, жмем выше под постером на ссылку Скачать [MediaGet] или Скачать .torrent
     3  Открываем скачанный файл через соответствующий клиент: MediaGet или uTorrent
     4  Ждем пока подключатся участники
     5  Качаем
    Комментарии о  Никто, кроме нас [Серии 01-02 из 02] | HDTVRip 1080p 
    Ближайшее в кино
    Вверх