• Игры для PS4
  • Игры для PS3
  • Игры для XBOX360
  • Игры для PC
  • Игры для PS2
  • Игры для PSP
  • Для телефонов
  • Музыка
  • Книги / Журналы
  • Обои
  • Опрос
    Удобен ли сайт в использовании?
      0
    • Очень удобен, все понятно1,1,false,300,full
    • Удобен1,2,false,300,full
    • Средне1,3,false,300,full
    • Неудобен, трудно ориентироваться1,4,false,300,full
    • Совсем неудобен1,5,false,300,full
    Статистика
    Всего онлайн -
    Гостей -
    Пользователей -
    Короли трекера
    Благодарности () Закрыть
    Информация о фильме
    Название: Побег.
    Год выхода: 2005
    Жанр:  Триллер, драма, криминал.
    Режиссер: Егор Кончаловский.
    В ролях: Евгений Миронов, Алексей Серебряков, Андрей Смоляков, Виктория Толстоганова, Сергей Габриэлян, Александр Мохов, Юрий Беляев, Любовь Толкалина, Сергей Астахов, Александр Новин.

    О фильме:
    Еще вчера у Евгения Ветрова была другая жизнь. У него были деньги, безупречная репутация, уважение коллег и самое главное — любовь. И как оказалось, у него были враги. В день подписания важнейшего контракта с американскими инвесторами кто-то зверски убивает жену Евгения.

    Никаких свидетелей и неколько неопровержимых улик. Все против Ветрова. Быстрый суд и приговор: виновен. Ему остается только бежать. Ветров принимает решение вернуться в Москву, чтобы провести собственное расследование и отомстить.



    Страна: Россия.
    Продолжительность: 01:57:08
    Перевод: Не требуется.

    Файл
    Кодек: x264
    Качество: DVDRip-AVC
    Видео: 716x438@1018x438, 25.000 fps, ~2089 Kbps
    Звук: AC3, 6 ch, ~448 kbit/s

    ***Релиз от: -=DoMiNo=-

    M/I
    x264 info: frame I:1352  Avg QP:16.40  size: 44823
    x264 info: frame P:43951 Avg QP:18.13  size: 20631
    x264 info: frame B:130421 Avg QP:19.85  size:  6657
    x264 info: consecutive B-frames:  3.7%  5.3% 12.2% 22.8% 11.5% 42.5%  1.1%  0.5%  0.2%  0.1%  0.0%  0.1%  0.0%  0.0%  0.0%  0.0%  0.0%

    General
    Unique ID                   : 232109363622450060247513180434236555525 (0xAE9EA32B28DFADF0C2F94334F155C105)
    Complete name               : Побег_(2005)_DVDRIP-AVC_[-=DoMiNo=-].mkv
    Format                      : Matroska
    Format version              : Version 4
    File size                   : 2.08 GiB
    Duration                    : 1 h 57 min
    Overall bit rate            : 2 540 kb/s
    Movie name                  : Побег
    Deion                 : Еще вчера у Евгения Ветрова была другая жизнь. У него были деньги, безупречная репутация, уважение коллег и самое главное — любовь. И как оказалось, у него были враги. В день подписания важнейшего контракта с американскими инвесторами кто-то зверски убивает жену Евгения. Никаких свидетелей и несколько неопровержимых улик. Все против Ветрова. Быстрый суд и приговор: виновен. Ему остается только бежать. Ветров принимает решение вернуться в Москву, чтобы провести собственное расследование и отомстить.
    Attachments                 : poster.jpg
    ACTORS                      : Evgeny Mironov, Aleksey Serebryakov, Viktoriya Tolstoganova, Aleksandr Mokhov, Yuri Belyayev, Lyubov Tolkalina, Anastasiya Richi, Victor Dobronravov
    COUNTRY                     : Russia
    DATE                        : 2005-03-31
    DIRECTOR                    : Egor Konchalovskiy
    GENRE                       : драма, триллер, криминал
    ITUNEXTC                    : ru-movie|16+|375|
    PUBLISHER                   : PS TVC Studio, Central Partnership
    RATING                      : 6.64

    Video
    ID                          : 1
    Format                      : AVC
    Format/Info                 : Advanced Video Codec
    Format profile              : High@L4.1
    Format settings             : CABAC / 16 Ref Frames
    Format settings, CABAC      : Yes
    Format settings, ReFrames   : 16 frames
    Codec ID                    : V_MPEG4/ISO/AVC
    Duration                    : 1 h 57 min
    Bit rate                    : 2 089 kb/s
    Width                       : 716 pixels
    Height                      : 438 pixels
    Display aspect ratio        : 2.35:1
    Frame rate mode             : Constant
    Frame rate                  : 25.000 FPS
    Color space                 : YUV
    Chroma subsampling          : 4:2:0
    Bit depth                   : 8 bits
    Scan type                   : Progressive
    Bits/(Pixel*Frame)          : 0.266
    Stream size                 : 1.67 GiB (80%)
    Title                       : RIP_BY_-=DoMiNo=-
    Writing library             : x264 core 157 r2901M 7d0ff22
    Encoding settings           : cabac=1 / ref=16 / deblock=1:-3:-3 / analyse=0x3:0x133 / me=umh / subme=11 / psy=1 / psy_rd=1.05:0.15 / mixed_ref=1 / me_range=48 / chroma_me=1 / trellis=2 / 8x8dct=1 / cqm=0 / deadzone=21,11 / fast_pskip=0 / chroma_qp_offset=-3 / threads=6 / lookahead_threads=1 / sliced_threads=0 / nr=0 / decimate=1 / interlaced=0 / bluray_compat=0 / constrained_intra=0 / bframes=16 / b_pyramid=2 / b_adapt=2 / b_bias=0 / direct=3 / weightb=1 / open_gop=0 / weightp=2 / keyint=250 / keyint_min=25 / scenecut=40 / intra_refresh=0 / rc=2pass / mbtree=0 / bitrate=2089 / ratetol=1.0 / qcomp=0.70 / qpmin=0 / qpmax=69 / qpstep=4 / cplxblur=20.0 / qblur=0.5 / ip_ratio=1.40 / pb_ratio=1.30 / aq=1:0.80
    Default                     : Yes
    Forced                      : No
    Color range                 : Limited

    Audio
    ID                          : 2
    Format                      : AC-3
    Format/Info                 : Audio Coding 3
    Commercial name             : Dolby Digital
    Codec ID                    : A_AC3
    Duration                    : 1 h 57 min
    Bit rate mode               : Constant
    Bit rate                    : 448 kb/s
    Channel(s)                  : 6 channels
    Channel layout              : L R C LFE Ls Rs
    Sampling rate               : 48.0 kHz
    Frame rate                  : 31.250 FPS (1536 SPF)
    Bit depth                   : 16 bits
    Compression mode            : Lossy
    Stream size                 : 375 MiB (18%)
    Language                    : Russian
    Service kind                : Complete Main
    Default                     : Yes
    Forced                      : No

    Menu
    00:00:00.000                : :Глава 1
    00:09:33.120                : :Глава 2
    00:16:20.280                : :Глава 3
    00:22:11.040                : :Глава 4
    00:29:03.360                : :Глава 5
    00:35:17.040                : :Глава 6
    00:41:16.319                : :Глава 7
    00:48:24.240                : :Глава 8
    00:56:56.760                : :Глава 9
    01:04:22.200                : :Глава 10
    01:10:43.559                : :Глава 11
    01:17:29.520                : :Глава 12
    01:23:53.280                : :Глава 13
    01:33:18.840                : :Глава 14
    01:40:55.560                : :Глава 15
    01:51:38.280                : :Глава 16Свернуть


    Инструкция по скачиванию
     1  Качаем uTorrent версии 2.0 и выше
     2  После установки, жмем выше под постером на ссылку Скачать [MediaGet] или Скачать .torrent
     3  Открываем скачанный файл через соответствующий клиент: MediaGet или uTorrent
     4  Ждем пока подключатся участники
     5  Качаем
    Комментарии о  Побег | DVDRip-AVC 
    Ближайшее в кино
    Вверх