• Игры для PS4
  • Игры для PS3
  • Игры для XBOX360
  • Игры для PC
  • Игры для PS2
  • Игры для PSP
  • Для телефонов
  • Музыка
  • Книги / Журналы
  • Обои
  • Опрос
    Удобен ли сайт в использовании?
      0
    • Очень удобен, все понятно1,1,false,300,full
    • Удобен1,2,false,300,full
    • Средне1,3,false,300,full
    • Неудобен, трудно ориентироваться1,4,false,300,full
    • Совсем неудобен1,5,false,300,full
    Статистика
    Всего онлайн -
    Гостей -
    Пользователей -
    Короли трекера
    Благодарности () Закрыть
    Информация о фильме
    Название: Русалка. Озеро мертвых
    Год выхода: 2018
    Жанр: Фэнтези, ужасы
    Режиссер: Святослав Подгаевский
    В ролях: Виктория Агалакова, Ефим Петрунин, Никита Еленев, Сесиль Плеже, Игорь Хрипунов, Софья Шидловская, Дарья Ярцева, Дмитрий Ярцев, Алла Артамонова, Эмиль Салес



    О фильме: Встреча со странной девушкой на затерянном лесном озере и её поцелуй резко меняют жизнь Ромы. Об этой встрече он очень скоро пожалеет: неизвестный недуг высасывает из него все жизненные силы. Марина готова на всё, чтобы освободить жениха от мистического морока. Что окажется сильнее: проклятье прошлого или настоящая любовь?

    Страна: Россия
    Студия: СТГ Синема, QS FILMS, Централ Партнершип, Киностудия КИТ
    Продолжительность: 01:26:59
    Язык: Русский

    Качество: BDRip 1080p
    Видео: MPEG-4 AVC, 1920x804, 10 Mbit/s, 23.976 fps
    Звук:
    Аудио #01: 48 kHz, DTS, 5.1, 1510 Kbps | RUS |[img]http://img11.lostpic.net/2018/08/13/7c2ebc4025c59bfa2d99e99b51a513dc.png[/img]
    Аудио #02: 48 kHz, AC3, 5.1, 640 Kbps | RUS |[img]http://img11.lostpic.net/2018/08/13/7c2ebc4025c59bfa2d99e99b51a513dc.png[/img]

    Скриншоты
    [screen]http://img14.lostpic.net/2018/12/04/7c081ee78215816358b2dcfe98a3f8c2.png[/screen][screen]http://img14.lostpic.net/2018/12/04/5fcb899fe3ea22129bdd7c11682c50fc.png[/screen][screen]http://img14.lostpic.net/2018/12/04/fe768f70a7eb2c323954ce053ed43b6f.png[/screen][screen]http://img14.lostpic.net/2018/12/04/ec937244d6dae0771209d1d7be7e4b68.png[/screen][screen]http://img14.lostpic.net/2018/12/04/49094164b8debccecca8218b419c4a59.png[/screen]Свернуть


    MI
    General
    Unique ID                   : 109336632468662453402393327137060515560 (0x5241782DCF097670D5CAB546BF2B6EE8)
    Complete name               : D:Video111The.Mermaid.Lake.of.the.Dead.2018.BDRip.1080p.selezen.mkv
    Format                      : Matroska
    Format version              : Version 4
    File size                   : 7.36 GiB
    Duration                    : 1 h 26 min
    Overall bit rate            : 12.1 Mb/s
    Movie name                  : The Mermaid Lake of the Dead 2018 From селезень
    Encoded date                : UTC 2018-12-04 08:41:54
    Writing application         : mkvmerge v29.0.0 ("Like It Or Not") 64-bit
    Writing library             : libebml v1.3.6 + libmatroska v1.4.9

    Video
    ID                          : 1
    Format                      : AVC
    Format/Info                 : Advanced Video Codec
    Format profile              : High@L4.1
    Format settings             : CABAC / 5 Ref Frames
    Format settings, CABAC      : Yes
    Format settings, ReFrames   : 5 frames
    Codec ID                    : V_MPEG4/ISO/AVC
    Duration                    : 1 h 26 min
    Bit rate                    : 10 000 kb/s
    Width                       : 1 920 pixels
    Height                      : 804 pixels
    Display aspect ratio        : 2.40:1
    Frame rate mode             : Constant
    Frame rate                  : 23.976 (24000/1001) FPS
    Color space                 : YUV
    Chroma subsampling          : 4:2:0
    Bit depth                   : 8 bits
    Scan type                   : Progressive
    Bits/(Pixel*Frame)          : 0.270
    Stream size                 : 6.05 GiB (82%)
    Title                       : selezen
    Writing library             : x264 core 148 r2705kMod 3f5ed56
    Encoding settings           : cabac=1 / ref=5 / deblock=1:-2:-2 / analyse=0x3:0x133 / me=umh / subme=11 / psy=1 / fade_compensate=0.00 / psy_rd=1.05:0.06 / mixed_ref=1 / me_range=32 / chroma_me=1 / trellis=2 / 8x8dct=1 / cqm=0 / deadzone=21,11 / fast_pskip=0 / chroma_qp_offset=-3 / threads=12 / lookahead_threads=2 / sliced_threads=0 / nr=0 / decimate=0 / interlaced=0 / bluray_compat=0 / constrained_intra=0 / fgo=0 / bframes=8 / b_pyramid=2 / b_adapt=2 / b_bias=0 / direct=3 / weightb=1 / open_gop=0 / weightp=2 / keyint=240 / keyint_min=23 / scenecut=40 / intra_refresh=0 / rc_lookahead=50 / rc=2pass / mbtree=0 / bitrate=10000 / ratetol=1.0 / qcomp=0.60 / qpmin=0 / qpmax=51 / qpstep=4 / cplxblur=20.0 / qblur=0.5 / vbv_maxrate=50000 / vbv_bufsize=62500 / nal_hrd=none / filler=0 / ip_ratio=1.40 / pb_ratio=1.30 / aq=3:0.80
    Language                    : German
    Default                     : Yes
    Forced                      : No

    Audio #1
    ID                          : 2
    Format                      : DTS
    Format/Info                 : Digital Theater Systems
    Codec ID                    : A_DTS
    Duration                    : 1 h 26 min
    Bit rate mode               : Constant
    Bit rate                    : 1 509 kb/s
    Channel(s)                  : 6 channels
    Channel layout              : C L R Ls Rs LFE
    Sampling rate               : 48.0 kHz
    Frame rate                  : 93.750 FPS (512 SPF)
    Bit depth                   : 16 bits
    Compression mode            : Lossy
    Stream size                 : 939 MiB (12%)
    Language                    : Russian
    Default                     : Yes
    Forced                      : Yes

    Audio #2
    ID                          : 3
    Format                      : AC-3
    Format/Info                 : Audio Coding 3
    Commercial name             : Dolby Digital
    Codec ID                    : A_AC3
    Duration                    : 1 h 26 min
    Bit rate mode               : Constant
    Bit rate                    : 640 kb/s
    Channel(s)                  : 6 channels
    Channel layout              : L R C LFE Ls Rs
    Sampling rate               : 48.0 kHz
    Frame rate                  : 31.250 FPS (1536 SPF)
    Bit depth                   : 16 bits
    Compression mode            : Lossy
    Stream size                 : 398 MiB (5%)
    Language                    : Russian
    Service kind                : Complete Main
    Default                     : No
    Forced                      : No

    Menu
    00:00:00.000                : :Глава 01
    00:04:59.466                : :Глава 02
    00:14:02.091                : :Глава 03
    00:21:24.617                : :Глава 04
    00:29:42.823                : :Глава 05
    00:37:02.303                : :Глава 06
    00:45:11.125                : :Глава 07
    00:54:12.416                : :Глава 08
    00:59:30.400                : :Глава 09
    01:05:23.628                : :Глава 10
    01:13:29.989                : :Глава 11
    01:19:06.241                : :Глава 12Свернуть
    Похожие раздачи Искать похожие
    Инструкция по скачиванию
     1  Качаем uTorrent версии 2.0 и выше
     2  После установки, жмем выше под постером на ссылку Скачать [MediaGet] или Скачать .torrent
     3  Открываем скачанный файл через соответствующий клиент: MediaGet или uTorrent
     4  Ждем пока подключатся участники
     5  Качаем
    Комментарии о  Русалка. Озеро мертвых | BDRip 1080p 
    Ближайшее в кино
    Вверх