• Игры для PS4
  • Игры для PS3
  • Игры для XBOX360
  • Игры для PC
  • Игры для PS2
  • Игры для PSP
  • Для телефонов
  • Музыка
  • Книги / Журналы
  • Обои
  • Опрос
    Удобен ли сайт в использовании?
      0
    • Очень удобен, все понятно1,1,false,300,full
    • Удобен1,2,false,300,full
    • Средне1,3,false,300,full
    • Неудобен, трудно ориентироваться1,4,false,300,full
    • Совсем неудобен1,5,false,300,full
    Статистика
    Всего онлайн -
    Гостей -
    Пользователей -
    Короли трекера
    Благодарности () Закрыть
    Полной грудью / Breathe In

    Страна: США
    Студия: Indian Paintbrush, Super Crispy Entertainment
    Жанр:  Драма, мелодрама
    Год выпуска: 2013
    Продолжительность: 01:37:14

    Перевод 1: Профессиональный многоголосый (Продакшн студия ARSPRO)
    Перевод 2: Профессиональный многоголосый (Первый канал)
    Перевод 3: Любительский одноголосый (datynet)
    Оригинальная аудиодорожка: английский

    Режиссер: Пол Моррисси / Paul Morrissey
    В ролях: Джо Даллесандро, Удо Кир, Витторио Де Сика, Максим МакКендри, Арно Жюержинг, Милена Вукотич, Доминик Дарель, Стефания Казини, Сильвия Дионисио, Инна Алексеевна

    Описание: Граф Дракула чахнет в румынском замке: на родине не осталось девственниц, кровь которых необходима для поддержания его существования. Вместе со слугой он отправляется в Италию, где надеется найти много непорочных девиц. Граф останавливается в доме разоряющегося семейства аристократов Дель Фьоре, которое надеется выдать за него одну их своих многочисленных дочерей, дабы поправить финансовое положение. Но сестрицы на выданье давно уже «попорчены» работником Марио. И их кровь вызывает у Дракулы только мучительную рвоту…



    Тип релиза: BDRip 1080p
    Контейнер: MKV
    Видео: 1920x808, 23.976 fps, x264, 10712 kbps
    Аудио 1: rus: DD, 5.1, 48 kHz, 384 kbps
    Аудио 2: rus: DD, 2.0, 48 kHz, 192 kbps
    Аудио 3: rus: DD, 5.1, 48 kHz, 640 kbps
    Аудио 4: eng: DTS, 1519 kb/s, 5.1, 48 kHz, 16 bit
    Субтитры: Русские, английские

    Релиз группа NovaLan
    Автор релиза Sergei7721


    MediaInfo

    Полное имя                               : D:Breathe.In.2013.x264.BDRip.1080p.NovaLan.mkv
    Формат                                   : Matroska
    Версия формата                           : Version 4 / Version 2
    Размер файла                             : 9,12 Гбайт
    Продолжительность                        : 1 ч. 37 м.
    Общий поток                              : 13,4 Мбит/сек
    Название фильма                          : Breathe In 2013 - NovaLan
    Дата кодирования                         : UTC 2018-08-13 09:17:11
    Программа кодирования                    : mkvmerge v6.9.1 ("Blue Panther") 64bit built on Apr 18 2014 18:23:38
    Библиотека кодирования                   : libebml v1.3.0 + libmatroska v1.4.1

    Видео
    Идентификатор                            : 1
    Формат                                   : AVC
    Формат/Информация                        : Advanced Video Codec
    Профиль формата                          : High@L4.1
    Параметр CABAC формата                   : Да
    Параметр ReFrames формата                : 4 кадра
    Идентификатор кодека                     : V_MPEG4/ISO/AVC
    Продолжительность                        : 1 ч. 37 м.
    Битрейт                                  : 10,7 Мбит/сек
    Ширина                                   : 1920 пикселей
    Высота                                   : 808 пикселей
    Соотношение сторон                       : 2,40:1
    Частота кадров                           : 23,976 кадра/сек
    Цветовое пространство                    : YUV
    Субдискретизация насыщенности            : 4:2:0
    Битовая глубина                          : 8 бит
    Тип развёртки                            : Прогрессивная
    Бит/(Пиксели*Кадры)                      : 0.288
    Размер потока                            : 7,09 Гбайт (78%)
    Заголовок                                : Sergei7721
    Библиотека кодирования                   : x264 core 155 r2901 7d0ff22
    Настройки программы                      : cabac=1 / ref=4 / deblock=1:-1:-1 / analyse=0x3:0x113 / me=umh / subme=11 / psy=1 / psy_rd=1.00:0.20 / mixed_ref=1 / me_range=24 / chroma_me=1 / trellis=2 / 8x8dct=1 / cqm=0 / deadzone=21,11 / fast_pskip=0 / chroma_qp_offset=-3 / threads=18 / lookahead_threads=2 / sliced_threads=0 / nr=0 / decimate=0 / interlaced=0 / bluray_compat=0 / constrained_intra=0 / bframes=6 / b_pyramid=2 / b_adapt=2 / b_bias=0 / direct=3 / weightb=1 / open_gop=0 / weightp=2 / keyint=240 / keyint_min=23 / scenecut=40 / intra_refresh=0 / rc_lookahead=40 / rc=2pass / mbtree=0 / bitrate=10712 / ratetol=1.0 / qcomp=0.60 / qpmin=0 / qpmax=69 / qpstep=4 / cplxblur=20.0 / qblur=0.5 / vbv_maxrate=50000 / vbv_bufsize=62500 / nal_hrd=none / filler=0 / ip_ratio=1.40 / pb_ratio=1.30 / aq=1:1.00
    Default                                  : Да
    Forced                                   : Нет

    Аудио #1
    Идентификатор                            : 2
    Формат                                   : AC-3
    Формат/Информация                        : Audio Coding 3
    Расширение режима                        : CM (complete main)
    Параметр Endianness формата              : Big
    Идентификатор кодека                     : A_AC3
    Продолжительность                        : 1 ч. 37 м.
    Вид битрейта                             : Постоянный
    Битрейт                                  : 384 Кбит/сек
    Каналы                                   : 6 каналов
    Расположение каналов                     : Front: L C R, Side: L R, LFE
    Частота                                  : 48,0 КГц
    Битовая глубина                          : 16 бит
    Метод сжатия                             : С потерями
    Размер потока                            : 267 Мбайт (3%)
    Язык                                     : Russian
    Default                                  : Да
    Forced                                   : Нет

    Аудио #2
    Идентификатор                            : 3
    Формат                                   : AC-3
    Формат/Информация                        : Audio Coding 3
    Расширение режима                        : CM (complete main)
    Параметр Endianness формата              : Big
    Идентификатор кодека                     : A_AC3
    Продолжительность                        : 1 ч. 37 м.
    Вид битрейта                             : Постоянный
    Битрейт                                  : 192 Кбит/сек
    Каналы                                   : 2 канала
    Расположение каналов                     : Front: L R
    Частота                                  : 48,0 КГц
    Битовая глубина                          : 16 бит
    Метод сжатия                             : С потерями
    Размер потока                            : 134 Мбайт (1%)
    Язык                                     : Russian
    Default                                  : Нет
    Forced                                   : Нет

    Аудио #3
    Идентификатор                            : 4
    Формат                                   : AC-3
    Формат/Информация                        : Audio Coding 3
    Расширение режима                        : CM (complete main)
    Параметр Endianness формата              : Big
    Идентификатор кодека                     : A_AC3
    Продолжительность                        : 1 ч. 37 м.
    Вид битрейта                             : Постоянный
    Битрейт                                  : 640 Кбит/сек
    Каналы                                   : 6 каналов
    Расположение каналов                     : Front: L C R, Side: L R, LFE
    Частота                                  : 48,0 КГц
    Битовая глубина                          : 16 бит
    Метод сжатия                             : С потерями
    Размер потока                            : 445 Мбайт (5%)
    Язык                                     : Russian
    Default                                  : Нет
    Forced                                   : Нет

    Аудио #4
    Идентификатор                            : 5
    Формат                                   : DTS
    Формат/Информация                        : Digital Theater Systems
    Идентификатор кодека                     : A_DTS
    Продолжительность                        : 1 ч. 37 м.
    Вид битрейта                             : Постоянный
    Битрейт                                  : 1510 Кбит/сек
    Каналы                                   : 6 каналов
    Расположение каналов                     : Front: L C R, Side: L R, LFE
    Частота                                  : 48,0 КГц
    Битовая глубина                          : 16 бит
    Метод сжатия                             : С потерями
    Размер потока                            : 1,03 Гбайт (11%)
    Язык                                     : English
    Default                                  : Нет
    Forced                                   : Нет

    Текст #1
    Идентификатор                            : 6
    Формат                                   : UTF-8
    Идентификатор кодека                     : S_TEXT/UTF8
    Идентификатор кодека/Информация          : UTF-8 Plain Text
    Язык                                     : Russian
    Default                                  : Нет
    Forced                                   : Нет

    Текст #2
    Идентификатор                            : 7
    Формат                                   : UTF-8
    Идентификатор кодека                     : S_TEXT/UTF8
    Идентификатор кодека/Информация          : UTF-8 Plain Text
    Язык                                     : English
    Default                                  : Нет
    Forced                                   : Нет

    Меню
    00:00:00.000                             : en:00:00:00.000
    00:08:00.188                             : en:00:08:00.188
    00:19:39.761                             : en:00:19:39.761
    00:29:30.310                             : en:00:29:30.310
    00:39:05.468                             : en:00:39:05.468
    00:47:19.336                             : en:00:47:19.336
    00:52:10.210                             : en:00:52:10.210
    01:02:17.275                             : en:01:02:17.275
    01:12:28.093                             : en:01:12:28.093
    01:20:47.259                             : en:01:20:47.259
    01:27:21.402                             : en:01:27:21.402
    01:31:45.917                             : en:01:31:45.917
    01:37:14.161                             : en:01:37:14.161
    Свернуть


    Похожие раздачи Искать похожие
    Инструкция по скачиванию
     1  Качаем uTorrent версии 2.0 и выше
     2  После установки, жмем выше под постером на ссылку Скачать [MediaGet] или Скачать .torrent
     3  Открываем скачанный файл через соответствующий клиент: MediaGet или uTorrent
     4  Ждем пока подключатся участники
     5  Качаем
    Комментарии о  Полной грудью / Breathe In | BDRip 1080p 
    Ближайшее в кино
    Вверх