• Игры для PS4
  • Игры для PS3
  • Игры для XBOX360
  • Игры для PC
  • Игры для PS2
  • Игры для PSP
  • Для телефонов
  • Музыка
  • Книги / Журналы
  • Обои
  • Опрос
    Удобен ли сайт в использовании?
      0
    • Очень удобен, все понятно1,1,false,300,full
    • Удобен1,2,false,300,full
    • Средне1,3,false,300,full
    • Неудобен, трудно ориентироваться1,4,false,300,full
    • Совсем неудобен1,5,false,300,full
    Статистика
    Всего онлайн -
    Гостей -
    Пользователей -
    Короли трекера
    Благодарности () Закрыть
    Информация о фильме
    Название: Древнейшая профессия / Гулящая
    Оригинальное название: Streetwalkin"
    Год выпуска: 1985
    Выпущено: США, Rodeo
    Жанр:  Триллер, боевик, драма
    Режиссер: Джоан Фриман
    В ролях: Мелисса Лео, Дэйл Мидкифф, Леон, Антонио Фаргас, Джули Ньюмар, Рэндолл Батинкофф, Энни Голден, Дебора Оффнер, Ханди Александер, Джули Коэн

    О фильме: Молодая девушка Куки живёт вместе со своим братом у нелюбимых матери и отчима. Она испытывает сексуальные домогательства от отчима, и будучи оскорблённой им бежит вместе с братом из своего городка в Нью-Йорк. Там она встречает молодого человека Дака, который оказывается сутенёром, и через некоторое время она начинает работу проституткой. Всё кажется ей прекрасным до тех пор, пока одна из проституток Дака не собирается уйти от него. Дак жестоко избивает её до полусмерти. У Куки всё увиденное вызывает отвращение и потрясение. Она убегает, чем приводит Дака в бешенство, он готов щедро заплатить за её поимку и отправляет вслед ей преследователей.

    Продолжительность: 01:23:47
    Перевод: Авторский
    Субтитры: Английские

    Файл
    Качество: WEB-DL 1080p
    Видео: MPEG-4 AVC, 14,1 Мбит/сек, 1920x1080, 23,976 кадра/сек
    Аудио #1: AC3, 2 ch, 192 Кбит/сек | Русский, авторский (одноголосый закадровый)
    Аудио #2: EAC3, 2 ch, 224 Кбит/сек | Английский, оригинал



    Скриншоты
    [screen]http://img14.lostpic.net/2018/12/03/6035872b67acd0593c82a36615585c34.png[/screen][screen]http://img14.lostpic.net/2018/12/03/0ec5b44daa0f2f98a242ad82d7daae67.png[/screen][screen]http://img14.lostpic.net/2018/12/03/ab7b87b341578bd79bfb04f3a3ae3ef0.png[/screen][screen]http://img14.lostpic.net/2018/12/03/7d92daca1c6e4e26bda85b066f43c7c6.png[/screen][screen]http://img14.lostpic.net/2018/12/03/17228f6e67717d3ded210d567812a9c8.png[/screen][screen]http://img14.lostpic.net/2018/12/03/039cb83aef497ac87ee2be346a546d17.png[/screen][screen]http://img14.lostpic.net/2018/12/03/1fcf870672ca64d5af0338ef7bc4bae0.png[/screen][screen]http://img14.lostpic.net/2018/12/03/f30efd9c462b43e8330406628669532a.png[/screen]Свернуть


    Инфо-файл
    Общее
    Уникальный идентификатор                 : 181745655339112370755559537132416530807 (0x88BAF0A30D826A62B2E57542877FF977)
    Полное имя                               : Древнейшая.профессия.1985.WEB-DL.1080p.mkv
    Формат                                   : Matroska
    Версия формата                           : Version 2
    Размер файла                             : 8,68 Гбайт
    Продолжительность                        : 1 ч. 23 м.
    Общий поток                              : 14,8 Мбит/сек
    Дата кодирования                         : UTC 2018-12-02 22:05:47
    Программа кодирования                    : mkvmerge v5.8.0 ("No Sleep / Pillow") built on Sep  2 2012 15:37:04
    Библиотека кодирования                   : libebml v1.2.3 + libmatroska v1.3.0

    Видео
    Идентификатор                            : 1
    Формат                                   : AVC
    Формат/Информация                        : Advanced Video Codec
    Профиль формата                          : High@L4
    Настройки формата                        : CABAC / 4 Ref Frames
    Параметр CABAC формата                   : Да
    Параметр RefFrames формата               : 4 кадра
    Идентификатор кодека                     : V_MPEG4/ISO/AVC
    Продолжительность                        : 1 ч. 23 м.
    Битрейт                                  : 14,1 Мбит/сек
    Ширина                                   : 1920 пикселей
    Высота                                   : 1080 пикселей
    Соотношение сторон                       : 16:9
    Режим частоты кадров                     : Постоянный
    Частота кадров                           : 23,976 (24000/1001) кадра/сек
    Цветовое пространство                    : YUV
    Субдискретизация насыщенности            : 4:2:0
    Битовая глубина                          : 8 бит
    Тип развёртки                            : Прогрессивная
    Бит/(Пиксели*Кадры)                      : 0.284
    Размер потока                            : 8,27 Гбайт (95%)
    Язык                                     : English
    По умолчанию                             : Да
    Принудительно                            : Нет
    Цветовой диапазон                        : Limited
    Основные цвета                           : BT.709
    Характеристики трансфера                 : BT.709
    Коэффициенты матрицы                     : BT.709

    Аудио #1
    Идентификатор                            : 2
    Формат                                   : AC-3
    Формат/Информация                        : Audio Coding 3
    Идентификатор кодека                     : A_AC3
    Продолжительность                        : 1 ч. 23 м.
    Вид битрейта                             : Постоянный
    Битрейт                                  : 192 Кбит/сек
    Каналы                                   : 2 канала
    Расположение каналов                     : Front: L R
    Частота                                  : 48,0 КГц
    Частота кадров                           : 31,250 кадров/сек (1536 SPF)
    Битовая глубина                          : 16 бит
    Метод сжатия                             : С потерями
    Размер потока                            : 115 Мбайт (1%)
    Заголовок                                : AVO | Л. Володарский
    Язык                                     : Russian
    По умолчанию                             : Да
    Принудительно                            : Нет

    Аудио #2
    Идентификатор                            : 3
    Формат                                   : E-AC-3
    Формат/Информация                        : Enhanced Audio Coding 3
    Идентификатор кодека                     : A_EAC3
    Продолжительность                        : 1 ч. 23 м.
    Вид битрейта                             : Постоянный
    Битрейт                                  : 224 Кбит/сек
    Каналы                                   : 2 канала
    Расположение каналов                     : Front: L R
    Частота                                  : 48,0 КГц
    Частота кадров                           : 187,500 кадров/сек (256 SPF)
    Метод сжатия                             : С потерями
    Размер потока                            : 134 Мбайт (2%)
    Заголовок                                : Original
    Язык                                     : English
    По умолчанию                             : Нет
    Принудительно                            : Нет

    Текст #1
    Идентификатор                            : 4
    Формат                                   : UTF-8
    Идентификатор кодека                     : S_TEXT/UTF8
    Идентификатор кодека/Информация          : UTF-8 Plain Text
    Язык                                     : English
    По умолчанию                             : Нет
    Принудительно                            : Нет

    Текст #2
    Идентификатор                            : 5
    Формат                                   : UTF-8
    Идентификатор кодека                     : S_TEXT/UTF8
    Идентификатор кодека/Информация          : UTF-8 Plain Text
    Заголовок                                : SDH
    Язык                                     : English
    По умолчанию                             : Нет
    Принудительно                            : НетСвернуть


    Дополнительная информация
    • Исходник видео WEB-DL Amazon.Свернуть


    Сборка:[img]http://i1.imageban.ru/out/2018/02/13/db08a675822da337df05f97bda2ce544.gif[/img] [img]http://i3.imageban.ru/out/2018/07/23/276881ff853d23c7f0c2335cfae4252f.png[/img]
    Инструкция по скачиванию
     1  Качаем uTorrent версии 2.0 и выше
     2  После установки, жмем выше под постером на ссылку Скачать [MediaGet] или Скачать .torrent
     3  Открываем скачанный файл через соответствующий клиент: MediaGet или uTorrent
     4  Ждем пока подключатся участники
     5  Качаем
    Комментарии о  Древнейшая профессия / Streetwalkin | WEB-DL 1080p 
    Ближайшее в кино
    Вверх