• Игры для PS4
  • Игры для PS3
  • Игры для XBOX360
  • Игры для PC
  • Игры для PS2
  • Игры для PSP
  • Для телефонов
  • Музыка
  • Книги / Журналы
  • Обои
  • Опрос
    Удобен ли сайт в использовании?
      0
    • Очень удобен, все понятно1,1,false,300,full
    • Удобен1,2,false,300,full
    • Средне1,3,false,300,full
    • Неудобен, трудно ориентироваться1,4,false,300,full
    • Совсем неудобен1,5,false,300,full
    Статистика
    Всего онлайн -
    Гостей -
    Пользователей -
    Короли трекера
    Благодарности () Закрыть
    Информация о фильме
    Название: Местные ребята
    Оригинальное название: Local Boys
    Год выпуска: 2002
    Выпущено: США, Capstone Pictures
    Жанр:  Драма
    Режиссер: Рон Молер
    В ролях: Джереми Самптер, Эрик Кристиан Олсен, Стэйси Эдвардс, Джузеппе Эндрюс, Чака Форман, Лукас Бенкен, Арчи Као, Хилари Анжело, Натали Рэмси

    О фильме: Двенадцатилетний Скит проводит большую часть времени со своим старшим братом Рэнди и его друзьями, для которых сёрфинг становится главным времяпровождением в последнее свободное лето перед поступлением в колледж или поисками работы. Их мать после смерти отца вынуждена работать допоздна и Рэнди и Скит главным образом предоставлены самим себе. На свой двенадцатый день рождения Скит получает в подарок свою первую доску для серфинга, но старший брат не слишком стремится помочь в его неуверенных попытках. Неожиданное знакомство с когда-то знаменитым сёрфером Джимом Уэсли, который приходит на помощь Скиту, резко меняет жизнь мальчика, тяжело переживающего недавнюю потерю отца. Рэнди, для которого Джим долгое время был кумиром, настороженно относится к завязавшейся дружбе между ними, и отношения ещё более накаляются, когда Джим встречается с их матерью...

    Продолжительность: 01:39:36
    Перевод: Любительский
    Субтитры: Русские, английские
    Навигация по главам: Есть

    Файл
    Качество: WEB-DL 1080p
    Видео: MPEG-4 AVC, 10000 Кбит/сек, 1920x1040, 23,976 кадра/сек
    Аудио #1: AC3, 2 ch, 192 Кбит/сек | Русский, любительский (одноголосый закадровый) Георгий Самойлов
    Аудио #2: AC3, 6 ch, 384 Кбит/сек | Английский, оригинал



    Скриншоты
    [screen]http://img14.lostpic.net/2018/12/03/aa98d0af2b6147da2b33c8a1567cd644.png[/screen][screen]http://img14.lostpic.net/2018/12/03/1d77e308b68fdea25527fc47d097bcc1.png[/screen][screen]http://img14.lostpic.net/2018/12/03/90f62976c1425a2c08f2fc6c295d4457.png[/screen][screen]http://img14.lostpic.net/2018/12/03/5588f9ef3d9ce26f58736f6daee61a04.png[/screen][screen]http://img14.lostpic.net/2018/12/03/a1eb0c910168fb6e014cdb7bfdf3e699.png[/screen][screen]http://img14.lostpic.net/2018/12/03/60cbca445e94971fd5de1421f9636dd9.png[/screen][screen]http://img14.lostpic.net/2018/12/03/0b6680b3b58ea046132f6156636da9a0.png[/screen][screen]http://img14.lostpic.net/2018/12/03/98b6419588f6e0213d3f247e7c10aed6.png[/screen]Свернуть


    Инфо-файл
    Общее
    Уникальный идентификатор                 : 228455690304405659016048716103627749834 (0xABDEF72A80B70EFC90D1094A04B2B9CA)
    Полное имя                               : Местные.ребята.2002.WEB-DL.1080p.mkv
    Формат                                   : Matroska
    Версия формата                           : Version 2
    Размер файла                             : 7,35 Гбайт
    Продолжительность                        : 1 ч. 39 м.
    Общий поток                              : 10,6 Мбит/сек
    Дата кодирования                         : UTC 2018-12-02 23:06:55
    Программа кодирования                    : mkvmerge v5.8.0 ("No Sleep / Pillow") built on Sep  2 2012 15:37:04
    Библиотека кодирования                   : libebml v1.2.3 + libmatroska v1.3.0

    Видео
    Идентификатор                            : 1
    Формат                                   : AVC
    Формат/Информация                        : Advanced Video Codec
    Профиль формата                          : High@L4
    Настройки формата                        : CABAC / 4 Ref Frames
    Параметр CABAC формата                   : Да
    Параметр RefFrames формата               : 4 кадра
    Идентификатор кодека                     : V_MPEG4/ISO/AVC
    Продолжительность                        : 1 ч. 39 м.
    Вид битрейта                             : Постоянный
    Битрейт                                  : 10000 Кбит/сек
    Ширина                                   : 1920 пикселей
    Высота                                   : 1040 пикселей
    Соотношение сторон                       : 1,85:1
    Режим частоты кадров                     : Постоянный
    Частота кадров                           : 23,976 (24000/1001) кадра/сек
    Цветовое пространство                    : YUV
    Субдискретизация насыщенности            : 4:2:0
    Битовая глубина                          : 8 бит
    Тип развёртки                            : Прогрессивная
    Бит/(Пиксели*Кадры)                      : 0.209
    Размер потока                            : 6,80 Гбайт (93%)
    Язык                                     : English
    По умолчанию                             : Да
    Принудительно                            : Нет
    Цветовой диапазон                        : Limited
    Основные цвета                           : BT.709
    Характеристики трансфера                 : BT.709
    Коэффициенты матрицы                     : BT.709

    Аудио #1
    Идентификатор                            : 2
    Формат                                   : AC-3
    Формат/Информация                        : Audio Coding 3
    Идентификатор кодека                     : A_AC3
    Продолжительность                        : 1 ч. 39 м.
    Вид битрейта                             : Постоянный
    Битрейт                                  : 192 Кбит/сек
    Каналы                                   : 2 канала
    Расположение каналов                     : Front: L R
    Частота                                  : 48,0 КГц
    Частота кадров                           : 31,250 кадров/сек (1536 SPF)
    Битовая глубина                          : 16 бит
    Метод сжатия                             : С потерями
    Размер потока                            : 137 Мбайт (2%)
    Заголовок                                : VO | Г. Самойлов
    Язык                                     : Russian
    По умолчанию                             : Да
    Принудительно                            : Нет

    Аудио #2
    Идентификатор                            : 3
    Формат                                   : AC-3
    Формат/Информация                        : Audio Coding 3
    Идентификатор кодека                     : A_AC3
    Продолжительность                        : 1 ч. 39 м.
    Вид битрейта                             : Постоянный
    Битрейт                                  : 384 Кбит/сек
    Каналы                                   : 6 каналов
    Расположение каналов                     : Front: L C R, Side: L R, LFE
    Частота                                  : 48,0 КГц
    Частота кадров                           : 31,250 кадров/сек (1536 SPF)
    Битовая глубина                          : 16 бит
    Метод сжатия                             : С потерями
    Размер потока                            : 274 Мбайт (4%)
    Заголовок                                : Original
    Язык                                     : English
    По умолчанию                             : Нет
    Принудительно                            : Нет

    Текст #1
    Идентификатор                            : 4
    Формат                                   : UTF-8
    Идентификатор кодека                     : S_TEXT/UTF8
    Идентификатор кодека/Информация          : UTF-8 Plain Text
    Язык                                     : Russian
    По умолчанию                             : Нет
    Принудительно                            : Нет

    Текст #2
    Идентификатор                            : 5
    Формат                                   : UTF-8
    Идентификатор кодека                     : S_TEXT/UTF8
    Идентификатор кодека/Информация          : UTF-8 Plain Text
    Язык                                     : English
    По умолчанию                             : Нет
    Принудительно                            : Нет

    Текст #3
    Идентификатор                            : 6
    Формат                                   : UTF-8
    Идентификатор кодека                     : S_TEXT/UTF8
    Идентификатор кодека/Информация          : UTF-8 Plain Text
    Заголовок                                : SDH
    Язык                                     : English
    По умолчанию                             : Нет
    Принудительно                            : Нет

    Меню
    00:00:00.000                             : en:Opening Credits
    00:03:27.008                             : en:The Big Boys
    00:10:22.008                             : en:Ain"t Happening Here
    00:22:17.008                             : en:Professional Help
    00:31:48.008                             : en:Visit From Jim
    00:39:02.008                             : en:Party Is Over
    00:48:59.008                             : en:Out To Dinner
    00:55:35.008                             : en:1940 Woody
    01:02:24.308                             : en:Mexico
    01:06:45.608                             : en:BBQ On The Beach
    01:23:25.408                             : en:Surfing Solo
    01:36:02.558                             : en:End CreditsСвернуть


    Дополнительная информация
    • Исходник видео WEB-DL Amazon.Свернуть


    Сборка:[img]http://i1.imageban.ru/out/2018/02/13/db08a675822da337df05f97bda2ce544.gif[/img] [img]http://i3.imageban.ru/out/2018/07/23/276881ff853d23c7f0c2335cfae4252f.png[/img]
    Похожие раздачи Искать похожие
    Инструкция по скачиванию
     1  Качаем uTorrent версии 2.0 и выше
     2  После установки, жмем выше под постером на ссылку Скачать [MediaGet] или Скачать .torrent
     3  Открываем скачанный файл через соответствующий клиент: MediaGet или uTorrent
     4  Ждем пока подключатся участники
     5  Качаем
    Комментарии о  Местные ребята / Local Boys | WEB-DL 1080p 
    Ближайшее в кино
    Вверх