• Игры для PS4
  • Игры для PS3
  • Игры для XBOX360
  • Игры для PC
  • Игры для PS2
  • Игры для PSP
  • Для телефонов
  • Музыка
  • Книги / Журналы
  • Обои
  • Опрос
    Откуда Вы о нас узнали?
      0
    • От знакомых2,1,false,300,full
    • Из социальных сетей2,2,false,300,full
    • Из поисковых систем2,3,false,300,full
    • Другое2,4,false,300,full
    Статистика
    Всего онлайн -
    Гостей -
    Пользователей -
    Короли трекера
    Благодарности () Закрыть
    Информация о фильме
    Название: Серебряный ветер
    Оригинальное название: The Silver Brumby
    Год выпуска: 1993
    Выпущено: Австралия, Australian Film Finance Corporation, Film Victoria, Media World, The Funny Farm
    Жанр:  Семейный, приключения, драма
    Режиссер: Джон Татулис
    В ролях: Кэролайн Гудолл, Расселл Кроу, Эмиел Демион, Джонни Раен, Бадди Тайсон, Грэм Фуллгрейб, Гари Амос, Мюррей Чессон, Джон Коулз, Дэнни Кук, Коуди Харрис, Ричард Фейтфулл, Чарльз А. Харрис, Кен Митчел

    О фильме: В далеких лесах Австралийских Альп живет необыкновенный герой — Таура, Серебряный Брамби, прекрасный и быстрый как ветер жеребец, рожденный свободным и не знающий, что такое седло. Он — король всех диких лошадей Каскадных гор. Ему не страшны любые стихии и опасности. Все почитают мудрого и гордого Тауру, даже его злейший враг — укротитель диких лошадей по прозвищу «Человек». Многие годы «Человек» безуспешно охотится на неуловимого Серебряного Брамби, пытаясь захватить свой самый ценный трофей, накинуть на Тауру узду и поставить к себе в стойло. Но лишь маленькой девочке Инди удается подружиться с Серебряным Брамби, которого, как утверждает легенда, невозможно приручить…

    Продолжительность: 01:34:46
    Перевод: Профессиональный многоголосый
    Субтитры: Английские
    Навигация по главам: Есть

    Файл
    Качество: WEB-DL 1080p
    Видео: MPEG-4 AVC, 11,4 Мбит/сек, 1920x1080, 23,976 кадра/сек
    Аудио #1: AC3, 1 ch, 192 Кбит/сек | Русский, профессиональный (многоголосый закадровый) "Екатеринбург Арт ЕА"
    Аудио #2: AC3, 2 ch, 192 Кбит/сек | Английский, оригинал



    Скриншоты
    [screen]http://img14.lostpic.net/2018/12/03/4cca30585dd35489ccad94380759cd79.png[/screen][screen]http://img14.lostpic.net/2018/12/03/dc190783fbe367757cbab877063dbec2.png[/screen][screen]http://img14.lostpic.net/2018/12/03/ff0cb57b3826ea42311be584c76c4c02.png[/screen][screen]http://img14.lostpic.net/2018/12/03/c3de53d90d0258c8c1a3d6307a568da4.png[/screen][screen]http://img14.lostpic.net/2018/12/03/c51f05dfd349240ffb3d2ef706a932a8.png[/screen][screen]http://img14.lostpic.net/2018/12/03/8f1bec9b8919a6cc6b688a8c00a4643a.png[/screen][screen]http://img14.lostpic.net/2018/12/03/0af3447b97cec25c836846a9d3ffe70e.png[/screen][screen]http://img14.lostpic.net/2018/12/03/e7b44580665950d9d7c07ffda216a860.png[/screen]Свернуть


    Инфо-файл
    Общее
    Уникальный идентификатор                 : 225549254999566038338702360984386798502 (0xA9AF34D788BC134CAE60E926EE4003A6)
    Полное имя                               : Серебряный.ветер.1993.WEB-DL.1080p.mkv
    Формат                                   : Matroska
    Версия формата                           : Version 2
    Размер файла                             : 7,97 Гбайт
    Продолжительность                        : 1 ч. 34 м.
    Общий поток                              : 12,0 Мбит/сек
    Дата кодирования                         : UTC 2018-12-03 02:45:25
    Программа кодирования                    : mkvmerge v5.8.0 ("No Sleep / Pillow") built on Sep  2 2012 15:37:04
    Библиотека кодирования                   : libebml v1.2.3 + libmatroska v1.3.0

    Видео
    Идентификатор                            : 1
    Формат                                   : AVC
    Формат/Информация                        : Advanced Video Codec
    Профиль формата                          : High@L4
    Настройки формата                        : CABAC / 4 Ref Frames
    Параметр CABAC формата                   : Да
    Параметр RefFrames формата               : 4 кадра
    Идентификатор кодека                     : V_MPEG4/ISO/AVC
    Продолжительность                        : 1 ч. 34 м.
    Битрейт                                  : 11,4 Мбит/сек
    Ширина                                   : 1920 пикселей
    Высота                                   : 1080 пикселей
    Соотношение сторон                       : 16:9
    Режим частоты кадров                     : Постоянный
    Частота кадров                           : 23,976 (24000/1001) кадра/сек
    Цветовое пространство                    : YUV
    Субдискретизация насыщенности            : 4:2:0
    Битовая глубина                          : 8 бит
    Тип развёртки                            : Прогрессивная
    Бит/(Пиксели*Кадры)                      : 0.230
    Размер потока                            : 7,55 Гбайт (95%)
    Язык                                     : English
    По умолчанию                             : Да
    Принудительно                            : Нет
    Цветовой диапазон                        : Limited
    Основные цвета                           : BT.709
    Характеристики трансфера                 : BT.709
    Коэффициенты матрицы                     : BT.709

    Аудио #1
    Идентификатор                            : 2
    Формат                                   : AC-3
    Формат/Информация                        : Audio Coding 3
    Идентификатор кодека                     : A_AC3
    Продолжительность                        : 1 ч. 34 м.
    Вид битрейта                             : Постоянный
    Битрейт                                  : 192 Кбит/сек
    Каналы                                   : 1 канал
    Расположение каналов                     : Front: C
    Частота                                  : 48,0 КГц
    Частота кадров                           : 31,250 кадров/сек (1536 SPF)
    Битовая глубина                          : 16 бит
    Метод сжатия                             : С потерями
    Размер потока                            : 130 Мбайт (2%)
    Заголовок                                : MVO | ЕА
    Язык                                     : Russian
    По умолчанию                             : Да
    Принудительно                            : Нет

    Аудио #2
    Идентификатор                            : 3
    Формат                                   : AC-3
    Формат/Информация                        : Audio Coding 3
    Идентификатор кодека                     : A_AC3
    Продолжительность                        : 1 ч. 34 м.
    Вид битрейта                             : Постоянный
    Битрейт                                  : 192 Кбит/сек
    Каналы                                   : 2 канала
    Расположение каналов                     : Front: L R
    Частота                                  : 48,0 КГц
    Частота кадров                           : 31,250 кадров/сек (1536 SPF)
    Битовая глубина                          : 16 бит
    Метод сжатия                             : С потерями
    Размер потока                            : 130 Мбайт (2%)
    Заголовок                                : Original
    Язык                                     : English
    По умолчанию                             : Нет
    Принудительно                            : Нет

    Текст
    Идентификатор                            : 4
    Формат                                   : UTF-8
    Идентификатор кодека                     : S_TEXT/UTF8
    Идентификатор кодека/Информация          : UTF-8 Plain Text
    Заголовок                                : SDH
    Язык                                     : English
    По умолчанию                             : Нет
    Принудительно                            : Нет

    Меню
    00:00:00.000                             : en:01. Main Titles/Bedtime Story
    00:09:20.791                             : en:02. Born In The Wild Wind
    00:14:46.732                             : en:03. Man The Invader
    00:21:12.002                             : en:04. The Brolga
    00:25:59.660                             : en:05. To The Rescue
    00:30:49.649                             : en:06. Brumby Drive
    00:37:37.443                             : en:07. Invisible In Snow
    00:42:40.061                             : en:08. Breaking A Brumby
    00:48:09.434                             : en:09. Man On A Black Horse
    00:49:49.704                             : en:10. Fight To Death
    00:52:42.027                             : en:11. Golden The Beautiful
    00:56:14.187                             : en:12. Challenge And Escape
    01:04:09.963                             : en:13. Return To The Bush
    01:05:11.162                             : en:14. Now Golden Was The Prize
    01:13:07.599                             : en:15. King Of The Cascades
    01:17:50.213                             : en:16. Horse Hunt: Manhunt
    01:24:48.952                             : en:17. Leap Off The Cliff
    01:30:35.038                             : en:18. End CreditsСвернуть


    Дополнительная информация
    • Исходник видео WEB-DL Amazon.Свернуть


    Сборка:[img]http://i1.imageban.ru/out/2018/02/13/db08a675822da337df05f97bda2ce544.gif[/img] [img]http://i3.imageban.ru/out/2018/07/23/276881ff853d23c7f0c2335cfae4252f.png[/img]
    Похожие раздачи Искать похожие
    Инструкция по скачиванию
     1  Качаем uTorrent версии 2.0 и выше
     2  После установки, жмем выше под постером на ссылку Скачать [MediaGet] или Скачать .torrent
     3  Открываем скачанный файл через соответствующий клиент: MediaGet или uTorrent
     4  Ждем пока подключатся участники
     5  Качаем
    Комментарии о  Серебряный ветер / The Silver Brumby | WEB-DL 1080p 
    Ближайшее в кино
    Вверх