• Игры для PS4
  • Игры для PS3
  • Игры для XBOX360
  • Игры для PC
  • Игры для PS2
  • Игры для PSP
  • Для телефонов
  • Музыка
  • Книги / Журналы
  • Обои
  • Опрос
    Удобен ли сайт в использовании?
      0
    • Очень удобен, все понятно1,1,false,300,full
    • Удобен1,2,false,300,full
    • Средне1,3,false,300,full
    • Неудобен, трудно ориентироваться1,4,false,300,full
    • Совсем неудобен1,5,false,300,full
    Статистика
    Всего онлайн -
    Гостей -
    Пользователей -
    Короли трекера
    Благодарности () Закрыть
    Информация о фильме
    Название: Рэмбо: Первая кровь
    Оригинальное название: First Blood
    Год выхода: 1982
    Жанр: боевик, триллер, криминал
    Режиссер: Тед Котчефф
    В ролях: Сильвестр Сталлоне, Ричард Кренна, Брайан Деннехи, Билл МакКинни, Джек Старретт, Майкл Толбот, Крис Малки, Джон МакЛиам, Альф Хамфриз, Дэвид Карузо

    О фильме:
    Он — эксперт. Эксперт по оружию, ножам и собственному телу. Он человек, специально обученный не замечать боль и погодные условия.
    Во Вьетнаме его задание было уничтожать вражеский личный состав. Много убивать. Истощать силы врага до полной победы. Рэмбо был лучший. На войне он был героем, а на родине, во имя которой проливалась кровь, он никому не нужен.
    Не способный приспособиться к мирной жизни Рэмбо путешествует автостопом по городам Америки, встречаясь с однополчанами. Путешествие прекращает провинциальный шериф, ненавидящий бродяг.
    Попавший в тюрьму по ложному обвинению, вкусивший унижений со стороны администрации, Рэмбо объявляет войну. Войну существующему отношению к ветеранам, беспределу официальных структур и главе местной полиции лично. Совершив фантастический побег из тюрьмы, Джон начинает партизанскую войну в местных лесах. Очень скоро ситуация выходит из под контроля властей и в маленький город вводят части регулярной армии. Бывший боевой командир Джона Рэмбо смог дать лишь один комментарий: «Раз ты привел сюда так много людей, то приготовь побольше мешков для трупов».



    Страна: США
    Студия: Anabasis N.V., Elcajo Productions
    Продолжительность: 01:33:49
    Перевод: Профессиональный многоголосый, авторский одноголосый

    Файл
    Кодек: H.264
    Качество: BDRip 1080p
    Видео: AVC 1920x816 (2.35:1), 14,9 Мбит/сек, 0.396 бит/(Пиксели*Кадры), 24.000 кадр/сек, High@L4.1
    Звук:
    Аудио1: Русская, AC3 640 Кбит/сек, 6 канала(ов),16bit 48,0 КГц MVO (Киномания)
    Аудио2: Русская, AC3 448 Кбит/сек, 6 канала(ов),16bit 48,0 КГц MVO (CP Digital)
    Аудио3: Русская, AC3 384 Кбит/сек, 6 канала(ов),16bit 48,0 КГц MVO (Позитив)
    Аудио4: Русская, AC3 192 Кбит/сек, 2 канала(ов),16bit 48,0 КГц MVO (НТВ)
    Аудио5: Русская, AC3 640 Кбит/сек, 6 канала(ов),16bit 48,0 КГц AVO (Гаврилов)
    Аудио6: Русская, AC3 640 Кбит/сек, 6 канала(ов),16bit 48,0 КГц AVO (Живов)
    Аудио7: Русская, AC3 256 Кбит/сек, 2 канала(ов),16bit 48,0 КГц AVO (Горчаков ранний)
    Аудио8: Русская, AC3 640 Кбит/сек, 6 канала(ов),16bit 48,0 КГц AVO (Горчаков поздний)
    Аудио9: Русская, AC3 640 Кбит/сек, 6 канала(ов),16bit 48,0 КГц AVO (Либергал)
    Аудио10: Русская, AC3 256 Кбит/сек, 2 канала(ов),16bit 48,0 КГц AVO (Володарский)
    Аудио11: Русская, AC3 640 Кбит/сек, 6 канала(ов),16bit 48,0 КГц AVO (Завгородний)
    Аудио12: English, AC3 640 Кбит/сек, 6 канала(ов),16bit 48,0 КГц
    Субтитры: Русские, English
    Навигация по главам: Есть

    Mediainfo
    x264 [info]: frame I:810   Avg QP:17.85  size:282157
    x264 [info]: frame P:29812 Avg QP:19.28  size:169603
    x264 [info]: frame B:103867 Avg QP:21.65  size: 49508
    x264 [info]: consecutive B-frames:  2.7%  2.0%  7.7% 13.4% 24.5% 48.7%  0.7%  0.2%  0.0%  0.1%  0.0%

    General
    Unique ID                                : 153418738395253209568559226585370567284 (0x736B5FCD92D24186BF13FBC68D77A274)
    Complete name                            : S:HDFILMSRAMBO CollectionRambo. First Blood (1982) GER transfer BDRip 1080p - KORSAR.mkv
    Format                                   : Matroska
    Format version                           : Version 4 / Version 2
    File size                                : 13.6 GiB
    Duration                                 : 1 h 33 min
    Overall bit rate                         : 20.8 Mb/s
    Movie name                               : Rambo. First Blood (1982) GER transfer_rip_by_Cthulhu
    Encoded date                             : UTC 2018-12-01 10:29:18
    Writing application                      : mkvmerge v28.2.0 ("The Awakening") 64-bit
    Writing library                          : libebml v1.3.6 + libmatroska v1.4.9
    Cover                                    : Yes
    Attachments                              : cover.jpg

    Video
    ID                                       : 1
    Format                                   : AVC
    Format/Info                              : Advanced Video Codec
    Format profile                           : High@L4.1
    Format settings, CABAC                   : Yes
    Format settings, RefFrames               : 5 frames
    Codec ID                                 : V_MPEG4/ISO/AVC
    Duration                                 : 1 h 33 min
    Bit rate                                 : 14.9 Mb/s
    Width                                    : 1 920 pixels
    Height                                   : 816 pixels
    Display aspect ratio                     : 2.35:1
    Frame rate mode                          : Constant
    Frame rate                               : 24.000 FPS
    Color space                              : YUV
    Chroma subsampling                       : 4:2:0
    Bit depth                                : 8 bits
    Scan type                                : Progressive
    Bits/(Pixel*Frame)                       : 0.396
    Stream size                              : 9.71 GiB (71%)
    Writing library                          : x264 core 152 r2851kMod ba24899
    Encoding settings                        : cabac=1 / ref=5 / deblock=1:-3:-2 / analyse=0x3:0x133 / me=umh / subme=11 / psy=1 / fade_compensate=0.00 / psy_rd=1.00:0.00 / mixed_ref=1 / me_range=48 / chroma_me=1 / trellis=2 / 8x8dct=1 / cqm=0 / deadzone=21,11 / fast_pskip=1 / chroma_qp_offset=-2 / threads=24 / lookahead_threads=6 / sliced_threads=0 / nr=0 / decimate=1 / interlaced=0 / bluray_compat=0 / constrained_intra=0 / bframes=10 / b_pyramid=2 / b_adapt=2 / b_bias=0 / direct=3 / weightb=1 / open_gop=0 / weightp=2 / keyint=240 / keyint_min=23 / scenecut=40 / intra_refresh=0 / rc_lookahead=60 / rc=crf / mbtree=0 / crf=19.0000 / qcomp=0.63 / qpmin=0 / qpmax=39 / qpstep=4 / vbv_maxrate=50000 / vbv_bufsize=62500 / crf_max=0.0 / nal_hrd=none / filler=0 / ip_ratio=1.40 / pb_ratio=1.30 / aq=3:0.80
    Language                                 : English
    Default                                  : Yes
    Forced                                   : No
    Color range                              : Limited
    Color primaries                          : BT.709
    Transfer characteristics                 : BT.709
    Matrix coefficients                      : BT.709

    Audio #1
    ID                                       : 2
    Format                                   : AC-3
    Format/Info                              : Audio Coding 3
    Mode extension                           : CM (complete main)
    Format settings, Endianness              : Big
    Codec ID                                 : A_AC3
    Duration                                 : 1 h 33 min
    Bit rate mode                            : Constant
    Bit rate                                 : 640 kb/s
    Channel(s)                               : 6 channels
    Channel positions                        : Front: L C R, Side: L R, LFE
    Sampling rate                            : 48.0 kHz
    Frame rate                               : 31.250 FPS (1536 spf)
    Compression mode                         : Lossy
    Stream size                              : 427 MiB (3%)
    Title                                    : MVO (Киномания)
    Language                                 : Russian
    Default                                  : Yes
    Forced                                   : No

    Audio #2
    ID                                       : 3
    Format                                   : AC-3
    Format/Info                              : Audio Coding 3
    Mode extension                           : CM (complete main)
    Format settings, Endianness              : Big
    Codec ID                                 : A_AC3
    Duration                                 : 1 h 33 min
    Bit rate mode                            : Constant
    Bit rate                                 : 448 kb/s
    Channel(s)                               : 6 channels
    Channel positions                        : Front: L C R, Side: L R, LFE
    Sampling rate                            : 48.0 kHz
    Frame rate                               : 31.250 FPS (1536 spf)
    Compression mode                         : Lossy
    Stream size                              : 299 MiB (2%)
    Title                                    : MVO (CP Digital)
    Language                                 : Russian
    Default                                  : No
    Forced                                   : No

    Audio #3
    ID                                       : 4
    Format                                   : AC-3
    Format/Info                              : Audio Coding 3
    Mode extension                           : CM (complete main)
    Format settings, Endianness              : Big
    Codec ID                                 : A_AC3
    Duration                                 : 1 h 33 min
    Bit rate mode                            : Constant
    Bit rate                                 : 384 kb/s
    Channel(s)                               : 6 channels
    Channel positions                        : Front: L C R, Side: L R, LFE
    Sampling rate                            : 48.0 kHz
    Frame rate                               : 31.250 FPS (1536 spf)
    Compression mode                         : Lossy
    Stream size                              : 256 MiB (2%)
    Title                                    : MVO (Позитив)
    Language                                 : Russian
    Default                                  : No
    Forced                                   : No

    Audio #4
    ID                                       : 5
    Format                                   : AC-3
    Format/Info                              : Audio Coding 3
    Mode extension                           : CM (complete main)
    Format settings, Endianness              : Big
    Codec ID                                 : A_AC3
    Duration                                 : 1 h 33 min
    Bit rate mode                            : Constant
    Bit rate                                 : 192 kb/s
    Channel(s)                               : 2 channels
    Channel positions                        : Front: L R
    Sampling rate                            : 48.0 kHz
    Frame rate                               : 31.250 FPS (1536 spf)
    Compression mode                         : Lossy
    Stream size                              : 128 MiB (1%)
    Title                                    : MVO (НТВ)
    Language                                 : Russian
    Default                                  : No
    Forced                                   : No

    Audio #5
    ID                                       : 6
    Format                                   : AC-3
    Format/Info                              : Audio Coding 3
    Mode extension                           : CM (complete main)
    Format settings, Endianness              : Big
    Codec ID                                 : A_AC3
    Duration                                 : 1 h 33 min
    Bit rate mode                            : Constant
    Bit rate                                 : 640 kb/s
    Channel(s)                               : 6 channels
    Channel positions                        : Front: L C R, Side: L R, LFE
    Sampling rate                            : 48.0 kHz
    Frame rate                               : 31.250 FPS (1536 spf)
    Compression mode                         : Lossy
    Stream size                              : 427 MiB (3%)
    Title                                    : AVO (Гаврилов)
    Language                                 : Russian
    Default                                  : No
    Forced                                   : No

    Audio #6
    ID                                       : 7
    Format                                   : AC-3
    Format/Info                              : Audio Coding 3
    Mode extension                           : CM (complete main)
    Format settings, Endianness              : Big
    Codec ID                                 : A_AC3
    Duration                                 : 1 h 33 min
    Bit rate mode                            : Constant
    Bit rate                                 : 640 kb/s
    Channel(s)                               : 6 channels
    Channel positions                        : Front: L C R, Side: L R, LFE
    Sampling rate                            : 48.0 kHz
    Frame rate                               : 31.250 FPS (1536 spf)
    Compression mode                         : Lossy
    Stream size                              : 429 MiB (3%)
    Title                                    : AVO (Живов)
    Language                                 : Russian
    Default                                  : No
    Forced                                   : No

    Audio #7
    ID                                       : 8
    Format                                   : AC-3
    Format/Info                              : Audio Coding 3
    Mode extension                           : CM (complete main)
    Format settings, Endianness              : Big
    Codec ID                                 : A_AC3
    Duration                                 : 1 h 33 min
    Bit rate mode                            : Constant
    Bit rate                                 : 256 kb/s
    Channel(s)                               : 2 channels
    Channel positions                        : Front: L R
    Sampling rate                            : 48.0 kHz
    Frame rate                               : 31.250 FPS (1536 spf)
    Compression mode                         : Lossy
    Stream size                              : 171 MiB (1%)
    Title                                    : AVO (Горчаков ранний)
    Language                                 : Russian
    Default                                  : No
    Forced                                   : No

    Audio #8
    ID                                       : 9
    Format                                   : AC-3
    Format/Info                              : Audio Coding 3
    Mode extension                           : CM (complete main)
    Format settings, Endianness              : Big
    Codec ID                                 : A_AC3
    Duration                                 : 1 h 33 min
    Bit rate mode                            : Constant
    Bit rate                                 : 640 kb/s
    Channel(s)                               : 6 channels
    Channel positions                        : Front: L C R, Side: L R, LFE
    Sampling rate                            : 48.0 kHz
    Frame rate                               : 31.250 FPS (1536 spf)
    Compression mode                         : Lossy
    Stream size                              : 427 MiB (3%)
    Title                                    : AVO (Горчаков поздний)
    Language                                 : Russian
    Default                                  : No
    Forced                                   : No

    Audio #9
    ID                                       : 10
    Format                                   : AC-3
    Format/Info                              : Audio Coding 3
    Mode extension                           : CM (complete main)
    Format settings, Endianness              : Big
    Codec ID                                 : A_AC3
    Duration                                 : 1 h 33 min
    Bit rate mode                            : Constant
    Bit rate                                 : 640 kb/s
    Channel(s)                               : 6 channels
    Channel positions                        : Front: L C R, Side: L R, LFE
    Sampling rate                            : 48.0 kHz
    Frame rate                               : 31.250 FPS (1536 spf)
    Compression mode                         : Lossy
    Stream size                              : 428 MiB (3%)
    Title                                    : AVO (Либергал)
    Language                                 : Russian
    Default                                  : No
    Forced                                   : No

    Audio #10
    ID                                       : 11
    Format                                   : AC-3
    Format/Info                              : Audio Coding 3
    Mode extension                           : CM (complete main)
    Format settings, Endianness              : Big
    Codec ID                                 : A_AC3
    Duration                                 : 1 h 33 min
    Bit rate mode                            : Constant
    Bit rate                                 : 256 kb/s
    Channel(s)                               : 2 channels
    Channel positions                        : Front: L R
    Sampling rate                            : 48.0 kHz
    Frame rate                               : 31.250 FPS (1536 spf)
    Compression mode                         : Lossy
    Stream size                              : 171 MiB (1%)
    Title                                    : AVO (Володарский)
    Language                                 : Russian
    Default                                  : No
    Forced                                   : No

    Audio #11
    ID                                       : 12
    Format                                   : AC-3
    Format/Info                              : Audio Coding 3
    Mode extension                           : CM (complete main)
    Format settings, Endianness              : Big
    Codec ID                                 : A_AC3
    Duration                                 : 1 h 33 min
    Bit rate mode                            : Constant
    Bit rate                                 : 640 kb/s
    Channel(s)                               : 6 channels
    Channel positions                        : Front: L C R, Side: L R, LFE
    Sampling rate                            : 48.0 kHz
    Frame rate                               : 31.250 FPS (1536 spf)
    Compression mode                         : Lossy
    Stream size                              : 428 MiB (3%)
    Title                                    : AVO  (Завгородний)
    Language                                 : Russian
    Default                                  : No
    Forced                                   : No

    Audio #12
    ID                                       : 13
    Format                                   : AC-3
    Format/Info                              : Audio Coding 3
    Mode extension                           : CM (complete main)
    Format settings, Endianness              : Big
    Codec ID                                 : A_AC3
    Duration                                 : 1 h 33 min
    Bit rate mode                            : Constant
    Bit rate                                 : 640 kb/s
    Channel(s)                               : 6 channels
    Channel positions                        : Front: L C R, Side: L R, LFE
    Sampling rate                            : 48.0 kHz
    Frame rate                               : 31.250 FPS (1536 spf)
    Compression mode                         : Lossy
    Stream size                              : 428 MiB (3%)
    Language                                 : English
    Default                                  : No
    Forced                                   : No

    Text #1
    ID                                       : 14
    Format                                   : UTF-8
    Codec ID                                 : S_TEXT/UTF8
    Codec ID/Info                            : UTF-8 Plain Text
    Duration                                 : 1 h 28 min
    Bit rate                                 : 55 b/s
    Count of elements                        : 849
    Stream size                              : 35.9 KiB (0%)
    Language                                 : Russian
    Default                                  : No
    Forced                                   : No

    Text #2
    ID                                       : 15
    Format                                   : UTF-8
    Codec ID                                 : S_TEXT/UTF8
    Codec ID/Info                            : UTF-8 Plain Text
    Duration                                 : 1 h 30 min
    Bit rate                                 : 32 b/s
    Count of elements                        : 608
    Stream size                              : 21.4 KiB (0%)
    Default                                  : No
    Forced                                   : No

    Menu
    00:00:00.000                             : en:Chapter 01
    00:05:19.291                             : en:Chapter 02
    00:10:13.166                             : en:Chapter 03
    00:17:55.375                             : en:Chapter 04
    00:23:37.916                             : en:Chapter 05
    00:31:48.500                             : en:Chapter 06
    00:42:29.250                             : en:Chapter 07
    00:54:11.833                             : en:Chapter 08
    01:06:07.125                             : en:Chapter 09
    01:14:03.000                             : en:Chapter 10
    01:23:01.291                             : en:Chapter 11
    01:29:25.250                             : en:Chapter 12Свернуть


    Скриншоты
    [screen]http://img14.lostpic.net/2018/12/01/3d8c61e29df32313e0baae9cc45499ec.png[/screen][screen]http://img14.lostpic.net/2018/12/01/7af1a3f6f1a4d0678dd5309bc1cb4875.png[/screen][screen]http://img14.lostpic.net/2018/12/01/f3eb2e772ae4ec772de8bdc01908c8cb.png[/screen][screen]http://img14.lostpic.net/2018/12/01/5785d69095ca0ee0cd2d66587d57c357.png[/screen][screen]http://img14.lostpic.net/2018/12/01/9a143e34a623fb497c1f0604b68c5fc1.png[/screen][screen]http://img14.lostpic.net/2018/12/01/6d63b0ab46ac2fa8ef635e95d1ec0b04.png[/screen][screen]http://img14.lostpic.net/2018/12/01/09d4c5975e734d2871cf4ea2054a772f.png[/screen][screen]http://img14.lostpic.net/2018/12/01/69fd2d89ee9c3b267e961a31ead68874.png[/screen]Свернуть


    [img]http://img12.lostpic.net/2018/06/13/f93dd06ce8a9e50557abf5deee63edc8.jpg[/img]

    [img]https://i1.imageban.ru/out/2018/02/13/db08a675822da337df05f97bda2ce544.gif[/img]
    Похожие раздачи Искать похожие
    Инструкция по скачиванию
     1  Качаем uTorrent версии 2.0 и выше
     2  После установки, жмем выше под постером на ссылку Скачать [MediaGet] или Скачать .torrent
     3  Открываем скачанный файл через соответствующий клиент: MediaGet или uTorrent
     4  Ждем пока подключатся участники
     5  Качаем
    Комментарии о  Рэмбо: Первая кровь / First Blood | BDRip 1080p 
    Ближайшее в кино
    Вверх