• Игры для PS4
  • Игры для PS3
  • Игры для XBOX360
  • Игры для PC
  • Игры для PS2
  • Игры для PSP
  • Для телефонов
  • Музыка
  • Книги / Журналы
  • Обои
  • Опрос
    Удобен ли сайт в использовании?
      0
    • Очень удобен, все понятно1,1,false,300,full
    • Удобен1,2,false,300,full
    • Средне1,3,false,300,full
    • Неудобен, трудно ориентироваться1,4,false,300,full
    • Совсем неудобен1,5,false,300,full
    Статистика
    Всего онлайн -
    Гостей -
    Пользователей -
    Короли трекера
    Благодарности () Закрыть
    Информация о фильме
    Название: Рэмбо: Первая кровь 2
    Оригинальное название: Rambo: First Blood Part II
    Год выхода: 1985
    Жанр: боевик, триллер, драма, приключения
    Режиссер: Джордж Косматос
    В ролях: Сильвестр Сталлоне, Ричард Кренна, Чарльз Напье, Стивен Беркофф, Julia Nickson-Soul, Мартин Коув, Джордж Чунг

    О фильме:
    Джон Рэмбо отбывает наказание в тюрьме строгого режима. Он смирился со своей участью, но, несмотря на свое положение, он продолжает чтить основные заповеди военного братства: верить напарнику, прикрывать его спину, отдать свою жизнь за него и за свою страну. Когда полковник Траутман, бывший боевой командир Рэмбо, предлагает ему отправиться во Вьетнам на спецоперацию по спасению оставшихся в плену американских солдат, он, не раздумывая, соглашается.



    Страна: США
    Студия: Anabasis N.V.
    Продолжительность: 01:35:56
    Перевод: Профессиональный многоголосый, профессиональный двухголосый, авторский одноголосый

    Файл
    Кодек: H.264
    Качество: BDRip 720p
    Видео: AVC 1280x544 (2.35:1), 8748 Кбит/сек, 0.523 бит/(Пиксели*Кадры), 24.000 кадр/сек, High@L4.1
    Звук:
    Аудио1: Русская, AC3 640 Кбит/сек, 6 канала(ов),16bit 48,0 КГц MVO (Киномания)
    Аудио2: Русская, AC3 640 Кбит/сек, 6 канала(ов),16bit 48,0 КГц MVO (CP Digital)
    Аудио3: Русская, AC3 640 Кбит/сек, 6 канала(ов),16bit 48,0 КГц MVO (Позитив)
    Аудио4: Русская, AC3 192 Кбит/сек, 2 канала(ов),16bit 48,0 КГц MVO (СТС)
    Аудио5: Русская, AC3 192 Кбит/сек, 2 канала(ов),16bit 48,0 КГц DVO (REN TV)
    Аудио6: Русская, AC3 640 Кбит/сек, 6 канала(ов),16bit 48,0 КГц AVO (Живов)
    Аудио7: Русская, AC3 640 Кбит/сек, 6 канала(ов),16bit 48,0 КГц AVO (Пучков)
    Аудио8: Русская, AC3 192 Кбит/сек, 2 канала(ов),16bit 48,0 КГц AVO (Гаврилов)
    Аудио9: Русская, AC3 224 Кбит/сек, 2 канала(ов),16bit 48,0 КГц AVO (Горчаков)
    Аудио10: Русская, AC3 224 Кбит/сек, 2 канала(ов),16bit 48,0 КГц AVO (Кузнецов)
    Аудио11: Русская, AC3 192 Кбит/сек, 2 канала(ов),16bit 48,0 КГц AVO (Визгунов)
    Аудио12: Русская, AC3 224 Кбит/сек, 2 канала(ов),16bit 48,0 КГц AVO (Либергал)
    Аудио13: Русская, AC3 256 Кбит/сек, 2 канала(ов),16bit 48,0 КГц AVO (Диктор РТВ)
    Аудио14: Русская, AC3 256 Кбит/сек, 2 канала(ов),16bit 48,0 КГц AVO (Неизвестный)
    Аудио15: Украинская, AC3 384 Кбит/сек, 6 канала(ов),16bit 48,0 КГц DVO (1+1)
    Аудио16: English, AC3 640 Кбит/сек, 6 канала(ов),16bit 48,0 КГц
    Субтитры: Русские, English
    Навигация по главам: Есть

    Mediainfo
    x264 [info]: frame I:1236  Avg QP:16.32  size:153187
    x264 [info]: frame P:34210 Avg QP:17.48  size: 90079
    x264 [info]: frame B:102500 Avg QP:19.43  size: 29408
    x264 [info]: consecutive B-frames:  4.9%  3.8%  9.4% 17.0% 22.7% 39.7%  1.9%  0.2%  0.1%  0.1%  0.0%

    General
    Unique ID                                : 139147000582042969661318268550726241610 (0x68AEBCCD6832CD53470D0548400B4D4A)
    Complete name                            : S:HDFILMSRAMBO CollectionRambo. First Blood. Part II (1985) GER transfer BDRip 720p - KORSAR.mkv
    Format                                   : Matroska
    Format version                           : Version 4 / Version 2
    File size                                : 9.99 GiB
    Duration                                 : 1 h 35 min
    Overall bit rate                         : 14.9 Mb/s
    Movie name                               : Rambo. First Blood. Part II (1985) GER transfer_rip_by_Cthulhu
    Encoded date                             : UTC 2018-12-01 16:51:32
    Writing application                      : mkvmerge v28.2.0 ("The Awakening") 64-bit
    Writing library                          : libebml v1.3.6 + libmatroska v1.4.9
    Cover                                    : Yes
    Attachments                              : cover1.jpg

    Video
    ID                                       : 1
    Format                                   : AVC
    Format/Info                              : Advanced Video Codec
    Format profile                           : High@L4.1
    Format settings, CABAC                   : Yes
    Format settings, RefFrames               : 9 frames
    Codec ID                                 : V_MPEG4/ISO/AVC
    Duration                                 : 1 h 35 min
    Bit rate                                 : 8 748 kb/s
    Width                                    : 1 280 pixels
    Height                                   : 544 pixels
    Display aspect ratio                     : 2.35:1
    Frame rate mode                          : Constant
    Frame rate                               : 24.000 FPS
    Color space                              : YUV
    Chroma subsampling                       : 4:2:0
    Bit depth                                : 8 bits
    Scan type                                : Progressive
    Bits/(Pixel*Frame)                       : 0.523
    Stream size                              : 5.85 GiB (59%)
    Writing library                          : x264 core 152 r2851kMod ba24899
    Encoding settings                        : cabac=1 / ref=9 / deblock=1:-3:-3 / analyse=0x3:0x133 / me=umh / subme=11 / psy=1 / fade_compensate=0.00 / psy_rd=1.00:0.00 / mixed_ref=1 / me_range=48 / chroma_me=1 / trellis=2 / 8x8dct=1 / cqm=0 / deadzone=21,11 / fast_pskip=1 / chroma_qp_offset=-2 / threads=17 / lookahead_threads=4 / sliced_threads=0 / nr=0 / decimate=1 / interlaced=0 / bluray_compat=0 / constrained_intra=0 / bframes=10 / b_pyramid=2 / b_adapt=2 / b_bias=0 / direct=3 / weightb=1 / open_gop=0 / weightp=2 / keyint=240 / keyint_min=23 / scenecut=40 / intra_refresh=0 / rc_lookahead=60 / rc=crf / mbtree=0 / crf=18.0000 / qcomp=0.72 / qpmin=0 / qpmax=39 / qpstep=4 / vbv_maxrate=50000 / vbv_bufsize=62500 / crf_max=0.0 / nal_hrd=none / filler=0 / ip_ratio=1.40 / pb_ratio=1.30 / aq=3:1.00
    Language                                 : English
    Default                                  : Yes
    Forced                                   : No
    Color range                              : Limited
    Color primaries                          : BT.709
    Transfer characteristics                 : BT.709
    Matrix coefficients                      : BT.709

    Audio #1
    ID                                       : 2
    Format                                   : AC-3
    Format/Info                              : Audio Coding 3
    Mode extension                           : CM (complete main)
    Format settings, Endianness              : Big
    Codec ID                                 : A_AC3
    Duration                                 : 1 h 35 min
    Bit rate mode                            : Constant
    Bit rate                                 : 640 kb/s
    Channel(s)                               : 6 channels
    Channel positions                        : Front: L C R, Side: L R, LFE
    Sampling rate                            : 48.0 kHz
    Frame rate                               : 31.250 FPS (1536 spf)
    Compression mode                         : Lossy
    Stream size                              : 439 MiB (4%)
    Title                                    : MVO (Киномания)
    Language                                 : Russian
    Default                                  : Yes
    Forced                                   : No

    Audio #2
    ID                                       : 3
    Format                                   : AC-3
    Format/Info                              : Audio Coding 3
    Mode extension                           : CM (complete main)
    Format settings, Endianness              : Big
    Codec ID                                 : A_AC3
    Duration                                 : 1 h 35 min
    Bit rate mode                            : Constant
    Bit rate                                 : 640 kb/s
    Channel(s)                               : 6 channels
    Channel positions                        : Front: L C R, Side: L R, LFE
    Sampling rate                            : 48.0 kHz
    Frame rate                               : 31.250 FPS (1536 spf)
    Compression mode                         : Lossy
    Stream size                              : 439 MiB (4%)
    Title                                    : MVO (CP Digital)
    Language                                 : Russian
    Default                                  : No
    Forced                                   : No

    Audio #3
    ID                                       : 4
    Format                                   : AC-3
    Format/Info                              : Audio Coding 3
    Mode extension                           : CM (complete main)
    Format settings, Endianness              : Big
    Codec ID                                 : A_AC3
    Duration                                 : 1 h 35 min
    Bit rate mode                            : Constant
    Bit rate                                 : 640 kb/s
    Channel(s)                               : 6 channels
    Channel positions                        : Front: L C R, Side: L R, LFE
    Sampling rate                            : 48.0 kHz
    Frame rate                               : 31.250 FPS (1536 spf)
    Compression mode                         : Lossy
    Stream size                              : 439 MiB (4%)
    Title                                    : MVO (Позитив-Мультимедиа)
    Language                                 : Russian
    Default                                  : No
    Forced                                   : No

    Audio #4
    ID                                       : 5
    Format                                   : AC-3
    Format/Info                              : Audio Coding 3
    Mode extension                           : CM (complete main)
    Format settings, Endianness              : Big
    Codec ID                                 : A_AC3
    Duration                                 : 1 h 35 min
    Bit rate mode                            : Constant
    Bit rate                                 : 192 kb/s
    Channel(s)                               : 2 channels
    Channel positions                        : Front: L R
    Sampling rate                            : 48.0 kHz
    Frame rate                               : 31.250 FPS (1536 spf)
    Compression mode                         : Lossy
    Stream size                              : 132 MiB (1%)
    Title                                    : MVO (СТС)
    Language                                 : Russian
    Default                                  : No
    Forced                                   : No

    Audio #5
    ID                                       : 6
    Format                                   : AC-3
    Format/Info                              : Audio Coding 3
    Mode extension                           : CM (complete main)
    Format settings, Endianness              : Big
    Codec ID                                 : A_AC3
    Duration                                 : 1 h 35 min
    Bit rate mode                            : Constant
    Bit rate                                 : 192 kb/s
    Channel(s)                               : 2 channels
    Channel positions                        : Front: L R
    Sampling rate                            : 48.0 kHz
    Frame rate                               : 31.250 FPS (1536 spf)
    Compression mode                         : Lossy
    Stream size                              : 132 MiB (1%)
    Title                                    : DVO (REN TV)
    Language                                 : Russian
    Default                                  : No
    Forced                                   : No

    Audio #6
    ID                                       : 7
    Format                                   : AC-3
    Format/Info                              : Audio Coding 3
    Mode extension                           : CM (complete main)
    Format settings, Endianness              : Big
    Codec ID                                 : A_AC3
    Duration                                 : 1 h 35 min
    Bit rate mode                            : Constant
    Bit rate                                 : 640 kb/s
    Channel(s)                               : 6 channels
    Channel positions                        : Front: L C R, Side: L R, LFE
    Sampling rate                            : 48.0 kHz
    Frame rate                               : 31.250 FPS (1536 spf)
    Compression mode                         : Lossy
    Stream size                              : 439 MiB (4%)
    Title                                    : AVO (Живов)
    Language                                 : Russian
    Default                                  : No
    Forced                                   : No

    Audio #7
    ID                                       : 8
    Format                                   : AC-3
    Format/Info                              : Audio Coding 3
    Mode extension                           : CM (complete main)
    Format settings, Endianness              : Big
    Codec ID                                 : A_AC3
    Duration                                 : 1 h 35 min
    Bit rate mode                            : Constant
    Bit rate                                 : 640 kb/s
    Channel(s)                               : 6 channels
    Channel positions                        : Front: L C R, Side: L R, LFE
    Sampling rate                            : 48.0 kHz
    Frame rate                               : 31.250 FPS (1536 spf)
    Compression mode                         : Lossy
    Stream size                              : 439 MiB (4%)
    Title                                    : AVO Пучков)
    Language                                 : Russian
    Default                                  : No
    Forced                                   : No

    Audio #8
    ID                                       : 9
    Format                                   : AC-3
    Format/Info                              : Audio Coding 3
    Mode extension                           : CM (complete main)
    Format settings, Endianness              : Big
    Codec ID                                 : A_AC3
    Duration                                 : 1 h 35 min
    Bit rate mode                            : Constant
    Bit rate                                 : 192 kb/s
    Channel(s)                               : 2 channels
    Channel positions                        : Front: L R
    Sampling rate                            : 48.0 kHz
    Frame rate                               : 31.250 FPS (1536 spf)
    Compression mode                         : Lossy
    Stream size                              : 132 MiB (1%)
    Title                                    : AVO (Гаврилов)
    Language                                 : Russian
    Default                                  : No
    Forced                                   : No

    Audio #9
    ID                                       : 10
    Format                                   : AC-3
    Format/Info                              : Audio Coding 3
    Mode extension                           : CM (complete main)
    Format settings, Endianness              : Big
    Codec ID                                 : A_AC3
    Duration                                 : 1 h 35 min
    Bit rate mode                            : Constant
    Bit rate                                 : 224 kb/s
    Channel(s)                               : 2 channels
    Channel positions                        : Front: L R
    Sampling rate                            : 48.0 kHz
    Frame rate                               : 31.250 FPS (1536 spf)
    Compression mode                         : Lossy
    Stream size                              : 154 MiB (2%)
    Title                                    : AVO (Горчаков)
    Language                                 : Russian
    Default                                  : No
    Forced                                   : No

    Audio #10
    ID                                       : 11
    Format                                   : AC-3
    Format/Info                              : Audio Coding 3
    Mode extension                           : CM (complete main)
    Format settings, Endianness              : Big
    Codec ID                                 : A_AC3
    Duration                                 : 1 h 35 min
    Bit rate mode                            : Constant
    Bit rate                                 : 224 kb/s
    Channel(s)                               : 2 channels
    Channel positions                        : Front: L R
    Sampling rate                            : 48.0 kHz
    Frame rate                               : 31.250 FPS (1536 spf)
    Compression mode                         : Lossy
    Stream size                              : 154 MiB (2%)
    Title                                    : AVO (Кузнецов)
    Language                                 : Russian
    Default                                  : No
    Forced                                   : No

    Audio #11
    ID                                       : 12
    Format                                   : AC-3
    Format/Info                              : Audio Coding 3
    Mode extension                           : CM (complete main)
    Format settings, Endianness              : Big
    Codec ID                                 : A_AC3
    Duration                                 : 1 h 35 min
    Bit rate mode                            : Constant
    Bit rate                                 : 192 kb/s
    Channel(s)                               : 2 channels
    Channel positions                        : Front: L R
    Sampling rate                            : 48.0 kHz
    Frame rate                               : 31.250 FPS (1536 spf)
    Compression mode                         : Lossy
    Stream size                              : 132 MiB (1%)
    Title                                    : AVO (Визгунов)
    Language                                 : Russian
    Default                                  : No
    Forced                                   : No

    Audio #12
    ID                                       : 13
    Format                                   : AC-3
    Format/Info                              : Audio Coding 3
    Mode extension                           : CM (complete main)
    Format settings, Endianness              : Big
    Codec ID                                 : A_AC3
    Duration                                 : 1 h 35 min
    Bit rate mode                            : Constant
    Bit rate                                 : 224 kb/s
    Channel(s)                               : 2 channels
    Channel positions                        : Front: L R
    Sampling rate                            : 48.0 kHz
    Frame rate                               : 31.250 FPS (1536 spf)
    Compression mode                         : Lossy
    Stream size                              : 154 MiB (2%)
    Title                                    : AVO (Либергал)
    Language                                 : Russian
    Default                                  : No
    Forced                                   : No

    Audio #13
    ID                                       : 14
    Format                                   : AC-3
    Format/Info                              : Audio Coding 3
    Mode extension                           : CM (complete main)
    Format settings, Endianness              : Big
    Codec ID                                 : A_AC3
    Duration                                 : 1 h 35 min
    Bit rate mode                            : Constant
    Bit rate                                 : 256 kb/s
    Channel(s)                               : 2 channels
    Channel positions                        : Front: L R
    Sampling rate                            : 48.0 kHz
    Frame rate                               : 31.250 FPS (1536 spf)
    Compression mode                         : Lossy
    Stream size                              : 176 MiB (2%)
    Title                                    : AVO (Диктор РТВ)
    Language                                 : Russian
    Default                                  : No
    Forced                                   : No

    Audio #14
    ID                                       : 15
    Format                                   : AC-3
    Format/Info                              : Audio Coding 3
    Mode extension                           : CM (complete main)
    Format settings, Endianness              : Big
    Codec ID                                 : A_AC3
    Duration                                 : 1 h 35 min
    Bit rate mode                            : Constant
    Bit rate                                 : 256 kb/s
    Channel(s)                               : 2 channels
    Channel positions                        : Front: L R
    Sampling rate                            : 48.0 kHz
    Frame rate                               : 31.250 FPS (1536 spf)
    Compression mode                         : Lossy
    Stream size                              : 176 MiB (2%)
    Title                                    : AVO (неизвестный)
    Language                                 : Russian
    Default                                  : No
    Forced                                   : No

    Audio #15
    ID                                       : 16
    Format                                   : AC-3
    Format/Info                              : Audio Coding 3
    Mode extension                           : CM (complete main)
    Format settings, Endianness              : Big
    Codec ID                                 : A_AC3
    Duration                                 : 1 h 35 min
    Bit rate mode                            : Constant
    Bit rate                                 : 384 kb/s
    Channel(s)                               : 6 channels
    Channel positions                        : Front: L C R, Side: L R, LFE
    Sampling rate                            : 48.0 kHz
    Frame rate                               : 31.250 FPS (1536 spf)
    Compression mode                         : Lossy
    Stream size                              : 263 MiB (3%)
    Title                                    : DVO (1+1)
    Language                                 : Ukrainian
    Default                                  : No
    Forced                                   : No

    Audio #16
    ID                                       : 17
    Format                                   : AC-3
    Format/Info                              : Audio Coding 3
    Mode extension                           : CM (complete main)
    Format settings, Endianness              : Big
    Codec ID                                 : A_AC3
    Duration                                 : 1 h 35 min
    Bit rate mode                            : Constant
    Bit rate                                 : 640 kb/s
    Channel(s)                               : 6 channels
    Channel positions                        : Front: L C R, Side: L R, LFE
    Sampling rate                            : 48.0 kHz
    Frame rate                               : 31.250 FPS (1536 spf)
    Compression mode                         : Lossy
    Stream size                              : 439 MiB (4%)
    Language                                 : English
    Default                                  : No
    Forced                                   : No

    Text #1
    ID                                       : 18
    Format                                   : UTF-8
    Codec ID                                 : S_TEXT/UTF8
    Codec ID/Info                            : UTF-8 Plain Text
    Duration                                 : 1 h 31 min
    Bit rate                                 : 40 b/s
    Count of elements                        : 443
    Stream size                              : 27.4 KiB (0%)
    Language                                 : Russian
    Default                                  : No
    Forced                                   : No

    Text #2
    ID                                       : 19
    Format                                   : UTF-8
    Codec ID                                 : S_TEXT/UTF8
    Codec ID/Info                            : UTF-8 Plain Text
    Duration                                 : 1 h 34 min
    Bit rate                                 : 20 b/s
    Count of elements                        : 440
    Stream size                              : 14.5 KiB (0%)
    Language                                 : English
    Default                                  : No
    Forced                                   : No

    Menu
    00:00:00.000                             : en:Chapter 01
    00:03:35.708                             : en:Chapter 02
    00:11:03.916                             : en:Chapter 03
    00:17:38.208                             : en:Chapter 04
    00:26:48.000                             : en:Chapter 05
    00:35:21.541                             : en:Chapter 06
    00:47:52.958                             : en:Chapter 07
    00:52:44.500                             : en:Chapter 08
    01:03:10.333                             : en:Chapter 09
    01:18:34.083                             : en:Chapter 10
    01:28:13.333                             : en:Chapter 11
    01:32:30.458                             : en:Chapter 12Свернуть


    Скриншоты
    [screen]http://img14.lostpic.net/2018/12/01/16ebc77604ca7171711775dd60cc6e21.png[/screen][screen]http://img14.lostpic.net/2018/12/01/ee2f08328a12af21819db22f0aa25ed7.png[/screen][screen]http://img14.lostpic.net/2018/12/01/d5c774e8f6a5d2306ae97550ba7e9c2e.png[/screen][screen]http://img14.lostpic.net/2018/12/01/515e3542775bf1866dcd6022c9ab293c.png[/screen][screen]http://img14.lostpic.net/2018/12/01/d9786af2467b852425e45f7ff99afd8d.png[/screen][screen]http://img14.lostpic.net/2018/12/01/40219f9b80233a8a6d4adbe9c29fce90.png[/screen][screen]http://img14.lostpic.net/2018/12/01/8828175708db3b09c160486dfab1b1e7.png[/screen][screen]http://img14.lostpic.net/2018/12/01/9f10a5f6afd71ca86cef794b0ae8131b.png[/screen][screen]http://img14.lostpic.net/2018/12/01/2d321111b3bc5852f1ff7302dab58777.png[/screen][screen]http://img14.lostpic.net/2018/12/01/15f94636d20a59b36ef468bd85a3e037.png[/screen]Свернуть


    [img]http://img12.lostpic.net/2018/06/13/f93dd06ce8a9e50557abf5deee63edc8.jpg[/img]

    [img]https://i1.imageban.ru/out/2018/02/13/db08a675822da337df05f97bda2ce544.gif[/img]
    Похожие раздачи Искать похожие
    Инструкция по скачиванию
     1  Качаем uTorrent версии 2.0 и выше
     2  После установки, жмем выше под постером на ссылку Скачать [MediaGet] или Скачать .torrent
     3  Открываем скачанный файл через соответствующий клиент: MediaGet или uTorrent
     4  Ждем пока подключатся участники
     5  Качаем
    Комментарии о  Рэмбо: Первая кровь 2 / Rambo: First Blood Part II | BDRip 720p 
    Ближайшее в кино
    Вверх