• Игры для PS4
  • Игры для PS3
  • Игры для XBOX360
  • Игры для PC
  • Игры для PS2
  • Игры для PSP
  • Для телефонов
  • Музыка
  • Книги / Журналы
  • Обои
  • Опрос
    Удобен ли сайт в использовании?
      0
    • Очень удобен, все понятно1,1,false,300,full
    • Удобен1,2,false,300,full
    • Средне1,3,false,300,full
    • Неудобен, трудно ориентироваться1,4,false,300,full
    • Совсем неудобен1,5,false,300,full
    Статистика
    Всего онлайн -
    Гостей -
    Пользователей -
    Короли трекера
    Благодарности () Закрыть
    Информация о фильме
    Название: Рэмбо: Первая кровь 2
    Оригинальное название: Rambo: First Blood Part II
    Год выхода: 1985
    Жанр: боевик, триллер, драма, приключения
    Режиссер: Джордж Косматос
    В ролях: Сильвестр Сталлоне, Ричард Кренна, Чарльз Напье, Стивен Беркофф, Julia Nickson-Soul, Мартин Коув, Джордж Чунг

    О фильме:
    Джон Рэмбо отбывает наказание в тюрьме строгого режима. Он смирился со своей участью, но, несмотря на свое положение, он продолжает чтить основные заповеди военного братства: верить напарнику, прикрывать его спину, отдать свою жизнь за него и за свою страну. Когда полковник Траутман, бывший боевой командир Рэмбо, предлагает ему отправиться во Вьетнам на спецоперацию по спасению оставшихся в плену американских солдат, он, не раздумывая, соглашается.



    Страна: США
    Студия: Anabasis N.V.
    Продолжительность: 01:35:56
    Перевод: Профессиональный многоголосый, профессиональный двухголосый, авторский одноголосый

    Файл
    Кодек: H.265
    Качество: BDRip 1080p
    Видео: HEVC 1920x816 (2.35:1), 10,9 Мбит/сек, 0.289 бит/(Пиксели*Кадры), 24.000 кадр/сек, High@L4.1, 10 бит
    Звук:
    Аудио1: Русская, AC3 640 Кбит/сек, 6 канала(ов),16bit 48,0 КГц MVO (Киномания)
    Аудио2: Русская, AC3 640 Кбит/сек, 6 канала(ов),16bit 48,0 КГц MVO (CP Digital)
    Аудио3: Русская, AC3 640 Кбит/сек, 6 канала(ов),16bit 48,0 КГц MVO (Позитив)
    Аудио4: Русская, AC3 192 Кбит/сек, 2 канала(ов),16bit 48,0 КГц MVO (СТС)
    Аудио5: Русская, AC3 192 Кбит/сек, 2 канала(ов),16bit 48,0 КГц DVO (REN TV)
    Аудио6: Русская, AC3 640 Кбит/сек, 6 канала(ов),16bit 48,0 КГц AVO (Живов)
    Аудио7: Русская, AC3 640 Кбит/сек, 6 канала(ов),16bit 48,0 КГц AVO (Пучков)
    Аудио8: Русская, AC3 192 Кбит/сек, 2 канала(ов),16bit 48,0 КГц AVO (Гаврилов)
    Аудио9: Русская, AC3 224 Кбит/сек, 2 канала(ов),16bit 48,0 КГц AVO (Горчаков)
    Аудио10: Русская, AC3 224 Кбит/сек, 2 канала(ов),16bit 48,0 КГц AVO (Кузнецов)
    Аудио11: Русская, AC3 192 Кбит/сек, 2 канала(ов),16bit 48,0 КГц AVO (Визгунов)
    Аудио12: Русская, AC3 224 Кбит/сек, 2 канала(ов),16bit 48,0 КГц AVO (Либергал)
    Аудио13: Русская, AC3 256 Кбит/сек, 2 канала(ов),16bit 48,0 КГц AVO (Диктор РТВ)
    Аудио14: Русская, AC3 256 Кбит/сек, 2 канала(ов),16bit 48,0 КГц AVO (Неизвестный)
    Аудио15: Украинская, AC3 384 Кбит/сек, 6 канала(ов),16bit 48,0 КГц DVO (1+1)
    Аудио16: English, AC3 640 Кбит/сек, 6 канала(ов),16bit 48,0 КГц
    Субтитры: Русские, English
    Навигация по главам: Есть

    Mediainfo
    x265 [info]: frame I:     49, Avg QP:17.83  kb/s: 41694.85
    x265 [info]: frame P:    547, Avg QP:19.76  kb/s: 25678.67
    x265 [info]: frame B:   1950, Avg QP:21.59  kb/s: 8088.59
    x265 [info]: consecutive B-frames: 15.4% 4.0% 10.9% 22.5% 15.3% 26.7% 1.8% 1.8% 0.2% 0.3% 0.0% 1.0%

    General
    Unique ID                                : 194556545002940677428598526332497691602 (0x925E3A4352B52A41F780A1B8118E03D2)
    Complete name                            : F:HEVCRAMBORambo. First Blood. Part II (1985) GER transfer BDRip-HEVC 1080p - KORSAR.mkv
    Format                                   : Matroska
    Format version                           : Version 4 / Version 2
    File size                                : 11.4 GiB
    Duration                                 : 1 h 35 min
    Overall bit rate                         : 17.0 Mb/s
    Movie name                               : Rambo. First Blood. Part II (1985) GER transfer_rip_by_Cthulhu
    Encoded date                             : UTC 2018-12-03 15:09:26
    Writing application                      : mkvmerge v28.2.0 ("The Awakening") 64-bit
    Writing library                          : libebml v1.3.6 + libmatroska v1.4.9
    Cover                                    : Yes
    Attachments                              : cover.jpg

    Video
    ID                                       : 1
    Format                                   : HEVC
    Format/Info                              : High Efficiency Video Coding
    Format profile                           : Main 10@L4.1@High
    Codec ID                                 : V_MPEGH/ISO/HEVC
    Duration                                 : 1 h 35 min
    Bit rate                                 : 10.9 Mb/s
    Width                                    : 1 920 pixels
    Height                                   : 816 pixels
    Display aspect ratio                     : 2.35:1
    Frame rate mode                          : Constant
    Frame rate                               : 24.000 FPS
    Color space                              : YUV
    Chroma subsampling                       : 4:2:0
    Bit depth                                : 10 bits
    Bits/(Pixel*Frame)                       : 0.289
    Stream size                              : 7.27 GiB (64%)
    Writing library                          : x265 2.9+2-7e978ed93d60:[Windows][MSVC 1915][64 bit] 10bit
    Encoding settings                        : cpuid=1176575 / frame-threads=4 / numa-pools=16 / wpp / no-pmode / no-pme / no-psnr / no-ssim / log-level=2 / input-csp=1 / input-res=1920x816 / interlace=0 / total-frames=137946 / level-idc=41 / high-tier=1 / uhd-bd=0 / ref=5 / no-allow-non-conformance / no-repeat-headers / annexb / no-aud / no-hrd / info / hash=0 / no-temporal-layers / open-gop / min-keyint=23 / keyint=240 / gop-lookahead=0 / bframes=11 / b-adapt=2 / b-pyramid / bframe-bias=0 / rc-lookahead=60 / lookahead-slices=0 / scenecut=40 / radl=0 / no-intra-refresh / ctu=32 / min-cu-size=8 / rect / amp / max-tu-size=32 / tu-inter-depth=4 / tu-intra-depth=4 / limit-tu=1 / rdoq-level=2 / dynamic-rd=0.00 / no-ssim-rd / signhide / no-tskip / nr-intra=0 / nr-inter=0 / no-constrained-intra / no-strong-intra-smoothing / max-merge=5 / limit-refs=2 / limit-modes / me=3 / subme=7 / merange=57 / temporal-mvp / weightp / weightb / no-analyze-src-pics / deblock=-3:-3 / no-sao / no-sao-non-deblock / rd=6 / no-early-skip / rskip / no-fast-intra / no-tskip-fast / no-cu-lossless / b-intra / no-splitrd-skip / rdpenalty=0 / psy-rd=1.00 / psy-rdoq=1.00 / no-rd-refine / no-lossless / cbqpoffs=0 / crqpoffs=0 / rc=crf / crf=20.5 / qcomp=0.78 / qpstep=4 / stats-write=0 / stats-read=0 / vbv-maxrate=50000 / vbv-bufsize=50000 / vbv-init=0.9 / crf-max=0.0 / crf-min=0.0 / ipratio=1.40 / pbratio=1.30 / aq-mode=2 / aq-strength=0.90 / no-cutree / zone-count=0 / no-strict-cbr / qg-size=32 / no-rc-grain / qpmax=69 / qpmin=0 / no-const-vbv / sar=1 / overscan=0 / videoformat=5 / range=0 / colorprim=1 / transfer=1 / colormatrix=1 / chromaloc=0 / display-window=0 / max-cll=0,0 / min-luma=0 / max-luma=1023 / log2-max-poc-lsb=8 / vui-timing-info / vui-hrd-info / slices=1 / no-opt-qp-pps / no-opt-ref-list-length-pps / no-multi-pass-opt-rps / scenecut-bias=0.05 / no-opt-cu-delta-qp / aq-motion / no-hdr / no-hdr-opt / no-dhdr10-opt / no-idr-recovery-sei / analysis-reuse-level=5 / scale-factor=0 / refine-intra=0 / refine-inter=0 / refine-mv=0 / no-limit-sao / ctu-info=0 / no-lowpass-dct / refine-mv-type=0 / copy-pic=1 / max-ausize-factor=1.0 / no-dynamic-refine / no-single-sei
    Language                                 : English
    Default                                  : Yes
    Forced                                   : No
    Color range                              : Limited
    Color primaries                          : BT.709
    Transfer characteristics                 : BT.709
    Matrix coefficients                      : BT.709

    Audio #1
    ID                                       : 2
    Format                                   : AC-3
    Format/Info                              : Audio Coding 3
    Mode extension                           : CM (complete main)
    Format settings, Endianness              : Big
    Codec ID                                 : A_AC3
    Duration                                 : 1 h 35 min
    Bit rate mode                            : Constant
    Bit rate                                 : 640 kb/s
    Channel(s)                               : 6 channels
    Channel positions                        : Front: L C R, Side: L R, LFE
    Sampling rate                            : 48.0 kHz
    Frame rate                               : 31.250 FPS (1536 spf)
    Compression mode                         : Lossy
    Stream size                              : 439 MiB (4%)
    Title                                    : MVO (Киномания)
    Language                                 : Russian
    Default                                  : Yes
    Forced                                   : No

    Audio #2
    ID                                       : 3
    Format                                   : AC-3
    Format/Info                              : Audio Coding 3
    Mode extension                           : CM (complete main)
    Format settings, Endianness              : Big
    Codec ID                                 : A_AC3
    Duration                                 : 1 h 35 min
    Bit rate mode                            : Constant
    Bit rate                                 : 640 kb/s
    Channel(s)                               : 6 channels
    Channel positions                        : Front: L C R, Side: L R, LFE
    Sampling rate                            : 48.0 kHz
    Frame rate                               : 31.250 FPS (1536 spf)
    Compression mode                         : Lossy
    Stream size                              : 439 MiB (4%)
    Title                                    : MVO (CP Digital)
    Language                                 : Russian
    Default                                  : No
    Forced                                   : No

    Audio #3
    ID                                       : 4
    Format                                   : AC-3
    Format/Info                              : Audio Coding 3
    Mode extension                           : CM (complete main)
    Format settings, Endianness              : Big
    Codec ID                                 : A_AC3
    Duration                                 : 1 h 35 min
    Bit rate mode                            : Constant
    Bit rate                                 : 640 kb/s
    Channel(s)                               : 6 channels
    Channel positions                        : Front: L C R, Side: L R, LFE
    Sampling rate                            : 48.0 kHz
    Frame rate                               : 31.250 FPS (1536 spf)
    Compression mode                         : Lossy
    Stream size                              : 439 MiB (4%)
    Title                                    : MVO (Позитив-Мультимедиа)
    Language                                 : Russian
    Default                                  : No
    Forced                                   : No

    Audio #4
    ID                                       : 5
    Format                                   : AC-3
    Format/Info                              : Audio Coding 3
    Mode extension                           : CM (complete main)
    Format settings, Endianness              : Big
    Codec ID                                 : A_AC3
    Duration                                 : 1 h 35 min
    Bit rate mode                            : Constant
    Bit rate                                 : 192 kb/s
    Channel(s)                               : 2 channels
    Channel positions                        : Front: L R
    Sampling rate                            : 48.0 kHz
    Frame rate                               : 31.250 FPS (1536 spf)
    Compression mode                         : Lossy
    Stream size                              : 132 MiB (1%)
    Title                                    : MVO (СТС)
    Language                                 : Russian
    Default                                  : No
    Forced                                   : No

    Audio #5
    ID                                       : 6
    Format                                   : AC-3
    Format/Info                              : Audio Coding 3
    Mode extension                           : CM (complete main)
    Format settings, Endianness              : Big
    Codec ID                                 : A_AC3
    Duration                                 : 1 h 35 min
    Bit rate mode                            : Constant
    Bit rate                                 : 192 kb/s
    Channel(s)                               : 2 channels
    Channel positions                        : Front: L R
    Sampling rate                            : 48.0 kHz
    Frame rate                               : 31.250 FPS (1536 spf)
    Compression mode                         : Lossy
    Stream size                              : 132 MiB (1%)
    Title                                    : DVO (REN TV)
    Language                                 : Russian
    Default                                  : No
    Forced                                   : No

    Audio #6
    ID                                       : 7
    Format                                   : AC-3
    Format/Info                              : Audio Coding 3
    Mode extension                           : CM (complete main)
    Format settings, Endianness              : Big
    Codec ID                                 : A_AC3
    Duration                                 : 1 h 35 min
    Bit rate mode                            : Constant
    Bit rate                                 : 640 kb/s
    Channel(s)                               : 6 channels
    Channel positions                        : Front: L C R, Side: L R, LFE
    Sampling rate                            : 48.0 kHz
    Frame rate                               : 31.250 FPS (1536 spf)
    Compression mode                         : Lossy
    Stream size                              : 439 MiB (4%)
    Title                                    : AVO (Живов)
    Language                                 : Russian
    Default                                  : No
    Forced                                   : No

    Audio #7
    ID                                       : 8
    Format                                   : AC-3
    Format/Info                              : Audio Coding 3
    Mode extension                           : CM (complete main)
    Format settings, Endianness              : Big
    Codec ID                                 : A_AC3
    Duration                                 : 1 h 35 min
    Bit rate mode                            : Constant
    Bit rate                                 : 640 kb/s
    Channel(s)                               : 6 channels
    Channel positions                        : Front: L C R, Side: L R, LFE
    Sampling rate                            : 48.0 kHz
    Frame rate                               : 31.250 FPS (1536 spf)
    Compression mode                         : Lossy
    Stream size                              : 439 MiB (4%)
    Title                                    : AVO Пучков)
    Language                                 : Russian
    Default                                  : No
    Forced                                   : No

    Audio #8
    ID                                       : 9
    Format                                   : AC-3
    Format/Info                              : Audio Coding 3
    Mode extension                           : CM (complete main)
    Format settings, Endianness              : Big
    Codec ID                                 : A_AC3
    Duration                                 : 1 h 35 min
    Bit rate mode                            : Constant
    Bit rate                                 : 192 kb/s
    Channel(s)                               : 2 channels
    Channel positions                        : Front: L R
    Sampling rate                            : 48.0 kHz
    Frame rate                               : 31.250 FPS (1536 spf)
    Compression mode                         : Lossy
    Stream size                              : 132 MiB (1%)
    Title                                    : AVO (Гаврилов)
    Language                                 : Russian
    Default                                  : No
    Forced                                   : No

    Audio #9
    ID                                       : 10
    Format                                   : AC-3
    Format/Info                              : Audio Coding 3
    Mode extension                           : CM (complete main)
    Format settings, Endianness              : Big
    Codec ID                                 : A_AC3
    Duration                                 : 1 h 35 min
    Bit rate mode                            : Constant
    Bit rate                                 : 224 kb/s
    Channel(s)                               : 2 channels
    Channel positions                        : Front: L R
    Sampling rate                            : 48.0 kHz
    Frame rate                               : 31.250 FPS (1536 spf)
    Compression mode                         : Lossy
    Stream size                              : 154 MiB (1%)
    Title                                    : AVO (Горчаков)
    Language                                 : Russian
    Default                                  : No
    Forced                                   : No

    Audio #10
    ID                                       : 11
    Format                                   : AC-3
    Format/Info                              : Audio Coding 3
    Mode extension                           : CM (complete main)
    Format settings, Endianness              : Big
    Codec ID                                 : A_AC3
    Duration                                 : 1 h 35 min
    Bit rate mode                            : Constant
    Bit rate                                 : 224 kb/s
    Channel(s)                               : 2 channels
    Channel positions                        : Front: L R
    Sampling rate                            : 48.0 kHz
    Frame rate                               : 31.250 FPS (1536 spf)
    Compression mode                         : Lossy
    Stream size                              : 154 MiB (1%)
    Title                                    : AVO (Кузнецов)
    Language                                 : Russian
    Default                                  : No
    Forced                                   : No

    Audio #11
    ID                                       : 12
    Format                                   : AC-3
    Format/Info                              : Audio Coding 3
    Mode extension                           : CM (complete main)
    Format settings, Endianness              : Big
    Codec ID                                 : A_AC3
    Duration                                 : 1 h 35 min
    Bit rate mode                            : Constant
    Bit rate                                 : 192 kb/s
    Channel(s)                               : 2 channels
    Channel positions                        : Front: L R
    Sampling rate                            : 48.0 kHz
    Frame rate                               : 31.250 FPS (1536 spf)
    Compression mode                         : Lossy
    Stream size                              : 132 MiB (1%)
    Title                                    : AVO (Визгунов)
    Language                                 : Russian
    Default                                  : No
    Forced                                   : No

    Audio #12
    ID                                       : 13
    Format                                   : AC-3
    Format/Info                              : Audio Coding 3
    Mode extension                           : CM (complete main)
    Format settings, Endianness              : Big
    Codec ID                                 : A_AC3
    Duration                                 : 1 h 35 min
    Bit rate mode                            : Constant
    Bit rate                                 : 224 kb/s
    Channel(s)                               : 2 channels
    Channel positions                        : Front: L R
    Sampling rate                            : 48.0 kHz
    Frame rate                               : 31.250 FPS (1536 spf)
    Compression mode                         : Lossy
    Stream size                              : 154 MiB (1%)
    Title                                    : AVO (Либергал)
    Language                                 : Russian
    Default                                  : No
    Forced                                   : No

    Audio #13
    ID                                       : 14
    Format                                   : AC-3
    Format/Info                              : Audio Coding 3
    Mode extension                           : CM (complete main)
    Format settings, Endianness              : Big
    Codec ID                                 : A_AC3
    Duration                                 : 1 h 35 min
    Bit rate mode                            : Constant
    Bit rate                                 : 256 kb/s
    Channel(s)                               : 2 channels
    Channel positions                        : Front: L R
    Sampling rate                            : 48.0 kHz
    Frame rate                               : 31.250 FPS (1536 spf)
    Compression mode                         : Lossy
    Stream size                              : 176 MiB (2%)
    Title                                    : AVO (Диктор РТВ)
    Language                                 : Russian
    Default                                  : No
    Forced                                   : No

    Audio #14
    ID                                       : 15
    Format                                   : AC-3
    Format/Info                              : Audio Coding 3
    Mode extension                           : CM (complete main)
    Format settings, Endianness              : Big
    Codec ID                                 : A_AC3
    Duration                                 : 1 h 35 min
    Bit rate mode                            : Constant
    Bit rate                                 : 256 kb/s
    Channel(s)                               : 2 channels
    Channel positions                        : Front: L R
    Sampling rate                            : 48.0 kHz
    Frame rate                               : 31.250 FPS (1536 spf)
    Compression mode                         : Lossy
    Stream size                              : 176 MiB (2%)
    Title                                    : AVO (неизвестный)
    Language                                 : Russian
    Default                                  : No
    Forced                                   : No

    Audio #15
    ID                                       : 16
    Format                                   : AC-3
    Format/Info                              : Audio Coding 3
    Mode extension                           : CM (complete main)
    Format settings, Endianness              : Big
    Codec ID                                 : A_AC3
    Duration                                 : 1 h 35 min
    Bit rate mode                            : Constant
    Bit rate                                 : 384 kb/s
    Channel(s)                               : 6 channels
    Channel positions                        : Front: L C R, Side: L R, LFE
    Sampling rate                            : 48.0 kHz
    Frame rate                               : 31.250 FPS (1536 spf)
    Compression mode                         : Lossy
    Stream size                              : 263 MiB (2%)
    Title                                    : DVO (1+1)
    Language                                 : Ukrainian
    Default                                  : No
    Forced                                   : No

    Audio #16
    ID                                       : 17
    Format                                   : AC-3
    Format/Info                              : Audio Coding 3
    Mode extension                           : CM (complete main)
    Format settings, Endianness              : Big
    Codec ID                                 : A_AC3
    Duration                                 : 1 h 35 min
    Bit rate mode                            : Constant
    Bit rate                                 : 640 kb/s
    Channel(s)                               : 6 channels
    Channel positions                        : Front: L C R, Side: L R, LFE
    Sampling rate                            : 48.0 kHz
    Frame rate                               : 31.250 FPS (1536 spf)
    Compression mode                         : Lossy
    Stream size                              : 439 MiB (4%)
    Language                                 : English
    Default                                  : No
    Forced                                   : No

    Text #1
    ID                                       : 18
    Format                                   : UTF-8
    Codec ID                                 : S_TEXT/UTF8
    Codec ID/Info                            : UTF-8 Plain Text
    Duration                                 : 1 h 31 min
    Bit rate                                 : 40 b/s
    Count of elements                        : 443
    Stream size                              : 27.4 KiB (0%)
    Language                                 : Russian
    Default                                  : No
    Forced                                   : No

    Text #2
    ID                                       : 19
    Format                                   : UTF-8
    Codec ID                                 : S_TEXT/UTF8
    Codec ID/Info                            : UTF-8 Plain Text
    Duration                                 : 1 h 34 min
    Bit rate                                 : 20 b/s
    Count of elements                        : 440
    Stream size                              : 14.5 KiB (0%)
    Language                                 : English
    Default                                  : No
    Forced                                   : No

    Menu
    00:00:00.000                             : en:Chapter 01
    00:03:35.708                             : en:Chapter 02
    00:11:03.916                             : en:Chapter 03
    00:17:38.208                             : en:Chapter 04
    00:26:48.000                             : en:Chapter 05
    00:35:21.541                             : en:Chapter 06
    00:47:52.958                             : en:Chapter 07
    00:52:44.500                             : en:Chapter 08
    01:03:10.333                             : en:Chapter 09
    01:18:34.083                             : en:Chapter 10
    01:28:13.333                             : en:Chapter 11
    01:32:30.458                             : en:Chapter 12Свернуть


    Скриншоты
    [screen]http://img14.lostpic.net/2018/12/03/5a43f6cdc4f4ab4e97c74cf340f3e981.png[/screen][screen]http://img14.lostpic.net/2018/12/03/8b37eef7ee111b9b5da7cf7ca4441410.png[/screen][screen]http://img14.lostpic.net/2018/12/03/14e56da2949552593f63c9419096b9be.png[/screen][screen]http://img14.lostpic.net/2018/12/03/6c98f5f6767933b2ab2039773189e70f.png[/screen][screen]http://img14.lostpic.net/2018/12/03/0771b7785006648086e8a2c122e1659c.png[/screen][screen]http://img14.lostpic.net/2018/12/03/0a3a69992840741e3a45b46e634031f4.png[/screen][screen]http://img14.lostpic.net/2018/12/03/97db5fb0620cc2695ffba41674294a56.png[/screen][screen]http://img14.lostpic.net/2018/12/03/6bf87a06bcdf824f66e50ef248f935ce.png[/screen]Свернуть


    [img]http://img12.lostpic.net/2018/06/13/f93dd06ce8a9e50557abf5deee63edc8.jpg[/img]

    [img]https://i1.imageban.ru/out/2018/02/13/db08a675822da337df05f97bda2ce544.gif[/img]
    Похожие раздачи Искать похожие
    Инструкция по скачиванию
     1  Качаем uTorrent версии 2.0 и выше
     2  После установки, жмем выше под постером на ссылку Скачать [MediaGet] или Скачать .torrent
     3  Открываем скачанный файл через соответствующий клиент: MediaGet или uTorrent
     4  Ждем пока подключатся участники
     5  Качаем
    Комментарии о  Рэмбо: Первая кровь 2 / Rambo: First Blood Part II | BDRip-HEVC 1080p 
    Ближайшее в кино
    Вверх