• Игры для PS4
  • Игры для PS3
  • Игры для XBOX360
  • Игры для PC
  • Игры для PS2
  • Игры для PSP
  • Для телефонов
  • Музыка
  • Книги / Журналы
  • Обои
  • Опрос
    Откуда Вы о нас узнали?
      0
    • От знакомых2,1,false,300,full
    • Из социальных сетей2,2,false,300,full
    • Из поисковых систем2,3,false,300,full
    • Другое2,4,false,300,full
    Статистика
    Всего онлайн -
    Гостей -
    Пользователей -
    Короли трекера
    Благодарности () Закрыть
    Информация о фильме
    Название: Короткая встреча
    Оригинальное название: Brief Encounter
    Год выпуска: 1974
    Выпущено: Великобритания, Италия, Transcontinental Film Productions (London), Carlo Ponti Cinematografica, Cecil Clarke Productions
    Жанр:  Драма, мелодрама, экранизация
    Режиссер: Алан Бриджес
    В ролях: Ричард Бёртон, Софи Лорен, Джек Хедли, Розмари Лич, Энн Фёрбэнк, Гвен Шеррил, Бенжамин Эдни, Джон Ле Мезюрье, Мадлен Хинде, Марко Орландини, Патриция Франклин, Джек Хардинг, Кристофер Бенжамин, Дэвид Кук, Кристофер Хэммонд, Джеки Хардинг, Эрнест С. Дженнингс, Норман Митчелл, Милдред Шоу, Брук Уильямс, Фред Вуд, Мэгги Уолкер

    О фильме: Анна Джессон (София Лорен) нежно любит мужа. У нее своя семья, уютное гнездышко, и вдруг она встречает человека, преуспевающего врача Алека Харви (Ричард Бертон), который дает ей то, чего она никогда не получала от мужа. Она любит мужа, но другой мужчина заставляет ее волноваться, испытывать новые чувства, нечто особенное, что достойно жизни с ним... И они были так близки к тому, чтобы совершить резкий поворот в жизни и кардинально изменить её, но... По мотивам пьесы Ноэла Кауарда «Всё ещё жизнь» (Still Life).

    Продолжительность: 01:43:21
    Перевод: Профессиональный многоголосый
    Субтитры: Английские
    Навигация по главам: Есть

    Файл
    Качество: WEB-DLRip 720p
    Видео: MPEG-4 AVC, 6926 Кбит/сек, 960x720, 23,976 кадра/сек
    Аудио #1: AC3, 2 ch, 192 Кбит/сек | Русский, профессиональный (многоголосый закадровый) СВ дубль по заказу ГТРК Культура
    Аудио #2: AC3, 2 ch, 192 Кбит/сек | Английский, оригинал



    Скриншоты
    [screen]http://img14.lostpic.net/2018/12/03/50a09293cb04e956b5377089dcaa00eb.png[/screen][screen]http://img14.lostpic.net/2018/12/03/f0b6a902c89bed6177e62a429d686771.png[/screen][screen]http://img14.lostpic.net/2018/12/03/e14d113aa9199013f09a2f6720bcc7a3.png[/screen][screen]http://img14.lostpic.net/2018/12/03/4cbea924450eefa64bdbf00fb4aa8b5a.png[/screen][screen]http://img14.lostpic.net/2018/12/03/b490557aacb285a3f5660fd4f62b47af.png[/screen][screen]http://img14.lostpic.net/2018/12/03/de4569edea7c7dba4c1840b714754efc.png[/screen][screen]http://img14.lostpic.net/2018/12/03/4c85fe109b2dc2dfc7eb7c5c3b35445f.png[/screen][screen]http://img14.lostpic.net/2018/12/03/32578e540a38df977458b14ab7aa8659.png[/screen]Свернуть


    Инфо-файл
    x264 [info]: frame I:944   Avg QP:18.18  size:124724
    x264 [info]: frame P:26987 Avg QP:19.60  size: 67970
    x264 [info]: frame B:120898 Avg QP:21.55  size: 28262
    -----------------------------------------------------
    Общее
    Уникальный идентификатор                 : 249257489295163820064874092142775248389 (0xBB853F0A374B58D9A044826E43942605)
    Полное имя                               : Короткая.встреча.1974.WEB-DLRip.720p.KORSAR.mkv
    Формат                                   : Matroska
    Версия формата                           : Version 2
    Размер файла                             : 5,28 Гбайт
    Продолжительность                        : 1 ч. 43 м.
    Общий поток                              : 7312 Кбит/сек
    Дата кодирования                         : UTC 2018-12-03 03:47:56
    Программа кодирования                    : mkvmerge v5.8.0 ("No Sleep / Pillow") built on Sep  2 2012 15:37:04
    Библиотека кодирования                   : libebml v1.2.3 + libmatroska v1.3.0

    Видео
    Идентификатор                            : 1
    Формат                                   : AVC
    Формат/Информация                        : Advanced Video Codec
    Профиль формата                          : High@L4.1
    Настройки формата                        : CABAC / 12 Ref Frames
    Параметр CABAC формата                   : Да
    Параметр RefFrames формата               : 12 кадров
    Идентификатор кодека                     : V_MPEG4/ISO/AVC
    Продолжительность                        : 1 ч. 43 м.
    Битрейт                                  : 6926 Кбит/сек
    Ширина                                   : 960 пикселей
    Высота                                   : 720 пикселей
    Соотношение сторон                       : 4:3
    Режим частоты кадров                     : Постоянный
    Частота кадров                           : 24,000 кадра/сек
    Цветовое пространство                    : YUV
    Субдискретизация насыщенности            : 4:2:0
    Битовая глубина                          : 8 бит
    Тип развёртки                            : Прогрессивная
    Бит/(Пиксели*Кадры)                      : 0.418
    Размер потока                            : 4,90 Гбайт (93%)
    Заголовок                                : RIP | MZMA
    Библиотека кодирования                   : x264 core 152 r2851kMod ba24899
    Настройки программы                      : cabac=1 / ref=12 / deblock=1:-2:-2 / analyse=0x3:0x113 / me=umh / subme=11 / psy=1 / fade_compensate=0.00 / psy_rd=1.00:0.00 / mixed_ref=1 / me_range=48 / chroma_me=1 / trellis=2 / 8x8dct=1 / cqm=0 / deadzone=21,11 / fast_pskip=0 / chroma_qp_offset=-2 / threads=6 / lookahead_threads=1 / sliced_threads=0 / nr=0 / decimate=0 / interlaced=0 / bluray_compat=0 / constrained_intra=0 / bframes=16 / b_pyramid=2 / b_adapt=2 / b_bias=0 / direct=3 / weightb=1 / open_gop=0 / weightp=2 / keyint=240 / keyint_min=24 / scenecut=40 / intra_refresh=0 / rc_lookahead=40 / rc=2pass / mbtree=0 / bitrate=6926 / ratetol=1.0 / qcomp=0.60 / qpmin=0 / qpmax=69 / qpstep=4 / cplxblur=20.0 / qblur=0.5 / vbv_maxrate=50000 / vbv_bufsize=62500 / nal_hrd=none / filler=0 / ip_ratio=1.15 / pb_ratio=1.30 / aq=3:0.70
    Язык                                     : English
    По умолчанию                             : Да
    Принудительно                            : Нет
    Цветовой диапазон                        : Limited
    Основные цвета                           : BT.709
    Характеристики трансфера                 : BT.709
    Коэффициенты матрицы                     : BT.709

    Аудио #1
    Идентификатор                            : 2
    Формат                                   : AC-3
    Формат/Информация                        : Audio Coding 3
    Идентификатор кодека                     : A_AC3
    Продолжительность                        : 1 ч. 43 м.
    Вид битрейта                             : Постоянный
    Битрейт                                  : 192 Кбит/сек
    Каналы                                   : 2 канала
    Расположение каналов                     : Front: L R
    Частота                                  : 48,0 КГц
    Частота кадров                           : 31,250 кадров/сек (1536 SPF)
    Битовая глубина                          : 16 бит
    Метод сжатия                             : С потерями
    Размер потока                            : 142 Мбайт (3%)
    Заголовок                                : MVO | СВ дубль
    Язык                                     : Russian
    По умолчанию                             : Да
    Принудительно                            : Нет

    Аудио #2
    Идентификатор                            : 3
    Формат                                   : AC-3
    Формат/Информация                        : Audio Coding 3
    Идентификатор кодека                     : A_AC3
    Продолжительность                        : 1 ч. 43 м.
    Вид битрейта                             : Постоянный
    Битрейт                                  : 192 Кбит/сек
    Каналы                                   : 2 канала
    Расположение каналов                     : Front: L R
    Частота                                  : 48,0 КГц
    Частота кадров                           : 31,250 кадров/сек (1536 SPF)
    Битовая глубина                          : 16 бит
    Метод сжатия                             : С потерями
    Размер потока                            : 142 Мбайт (3%)
    Заголовок                                : Original
    Язык                                     : English
    По умолчанию                             : Нет
    Принудительно                            : Нет

    Текст #1
    Идентификатор                            : 4
    Формат                                   : UTF-8
    Идентификатор кодека                     : S_TEXT/UTF8
    Идентификатор кодека/Информация          : UTF-8 Plain Text
    Язык                                     : English
    По умолчанию                             : Нет
    Принудительно                            : Нет

    Текст #2
    Идентификатор                            : 5
    Формат                                   : UTF-8
    Идентификатор кодека                     : S_TEXT/UTF8
    Идентификатор кодека/Информация          : UTF-8 Plain Text
    Заголовок                                : SDH
    Язык                                     : English
    По умолчанию                             : Нет
    Принудительно                            : Нет

    Меню
    00:00:00.000                             : en:Chapter 01
    00:04:06.464                             : en:Chapter 02
    00:12:26.197                             : en:Chapter 03
    00:21:07.620                             : en:Chapter 04
    00:31:26.180                             : en:Chapter 05
    00:42:27.080                             : en:Chapter 06
    00:49:28.963                             : en:Chapter 07
    00:59:37.579                             : en:Chapter 08
    01:11:06.166                             : en:Chapter 09
    01:22:32.872                             : en:Chapter 10
    01:33:21.872                             : en:Chapter 11
    01:37:37.310                             : en:Chapter 12
    01:42:34.243                             : en:Chapter 13Свернуть


    Похожие раздачи Искать похожие
    Инструкция по скачиванию
     1  Качаем uTorrent версии 2.0 и выше
     2  После установки, жмем выше под постером на ссылку Скачать [MediaGet] или Скачать .torrent
     3  Открываем скачанный файл через соответствующий клиент: MediaGet или uTorrent
     4  Ждем пока подключатся участники
     5  Качаем
    Комментарии о  Короткая встреча / Brief Encounter | WEB-DLRip 720p 
    Ближайшее в кино
    Вверх