• Игры для PS4
  • Игры для PS3
  • Игры для XBOX360
  • Игры для PC
  • Игры для PS2
  • Игры для PSP
  • Для телефонов
  • Музыка
  • Книги / Журналы
  • Обои
  • Опрос
    Удобен ли сайт в использовании?
      0
    • Очень удобен, все понятно1,1,false,300,full
    • Удобен1,2,false,300,full
    • Средне1,3,false,300,full
    • Неудобен, трудно ориентироваться1,4,false,300,full
    • Совсем неудобен1,5,false,300,full
    Статистика
    Всего онлайн -
    Гостей -
    Пользователей -
    Короли трекера
    Благодарности () Закрыть
    Информация о фильме
    Название: Спонтанное возгорание
    Оригинальное название: Spontaneous Combustion
    Год выхода: 1990
    Жанр: ужасы, фантастика, триллер
    Режиссер: Тоуб Хупер
    В ролях: Брэд Дуриф, Майкл Кис Холл, Мелинда Диллон, Джон Сайфер, Уильям Принц, Теган Уэст, Синтия Бэйн, Дэйл Дай, Дей Янг, Дик Баткас

    О фильме:
    Он наделен необычным и таинственным даром. Никто не может объяснить его происхождение. Ясно одно: Сэм Креймер — человек-феномен, вынужденный постоянно находиться под наблюдением ученых. И так продолжается до тех пор, пока люди, оказывающиеся на пути Сэма, не начинают один за другим погибать самым ужасным образом.

    Они сгорают заживо. Сэм в ужасе пытается найти объяснение страшным событиям. И чем ближе он к разгадке, тем теснее становится круг его врагов, которые готовы на все, лишь бы Сэм не узнал истину. А началась вся эта история более сорока лет назад…



    Страна: США
    Продолжительность: 01:36:52
    Перевод 1: Авторский (одноголосый закадровый) Сергей Визгунов
    Перевод 2: Авторский (одноголосый закадровый) Андрей Гаврилов
    Оригинальная аудиодорожка: английская

    Файл
    Качество: BDRip 720p
    Видео: x264, 8000 kbps, 1280x720
    Аудио 1: Russian, AC3, 2.0 Ch, 48 kHz, 192 kbps, 16 bit Сергей Визгунов
    Аудио 2: Russian, AC3, 2.0 Ch, 48 kHz, 192 kbps, 16 bit Андрей Гаврилов
    Аудио 3: English, DTS-HD Master Audio, 2.0 Ch, 48 kHz, ~1792 kbps, 24 bit

    Скриншоты
    [screen]http://img14.lostpic.net/2018/12/04/c547bff2c2b93624790ae21de62d7dfc.png[/screen][screen]http://img14.lostpic.net/2018/12/04/10799bd42a1cd85ef9c402249e5112f5.png[/screen][screen]http://img14.lostpic.net/2018/12/04/4771db92814ad17d62755034d7022224.png[/screen][screen]http://img14.lostpic.net/2018/12/04/c4006fb56e03e860998ae615faa34ab3.png[/screen]Свернуть


    MediaInfo
    General
    Unique ID                                : 244234688985444666894738113143197864455 (0xB7BDE3DD6E4E5221B2A37891D7D31207)
    Complete name                            : J:nripsSpontaneous.Combustion.1990.BDRip.720p.mkv
    Format                                   : Matroska
    Format version                           : Version 4 / Version 2
    File size                                : 6.88 GiB
    Duration                                 : 1 h 36 min
    Overall bit rate                         : 10.2 Mb/s
    Encoded date                             : UTC 2017-10-14 20:27:48
    Writing application                      : mkvmerge v15.0.0 ("Duel with the Devil") 64-bit
    Writing library                          : libebml v1.3.5 + libmatroska v1.4.5

    Video
    ID                                       : 1
    Format                                   : AVC
    Format/Info                              : Advanced Video Codec
    Format profile                           : High@L4.1
    Format settings                          : CABAC / 9 Ref Frames
    Format settings, CABAC                   : Yes
    Format settings, RefFrames               : 9 frames
    Codec ID                                 : V_MPEG4/ISO/AVC
    Duration                                 : 1 h 36 min
    Bit rate                                 : 8 000 kb/s
    Width                                    : 1 280 pixels
    Height                                   : 720 pixels
    Display aspect ratio                     : 16:9
    Frame rate mode                          : Constant
    Frame rate                               : 23.976 (24000/1001) FPS
    Color space                              : YUV
    Chroma subsampling                       : 4:2:0
    Bit depth                                : 8 bits
    Scan type                                : Progressive
    Bits/(Pixel*Frame)                       : 0.362
    Stream size                              : 5.40 GiB (79%)
    Title                                    : Spontaneous.Combustion.1990.720p
    Writing library                          : x264 core 146 r2538 121396c
    Encoding settings                        : cabac=1 / ref=9 / deblock=1:-3:-3 / analyse=0x3:0x113 / me=umh / subme=11 / psy=1 / psy_rd=1.00:0.00 / mixed_ref=1 / me_range=48 / chroma_me=1 / trellis=2 / 8x8dct=1 / cqm=0 / deadzone=21,11 / fast_pskip=0 / chroma_qp_offset=-2 / threads=9 / lookahead_threads=1 / sliced_threads=0 / nr=0 / decimate=0 / interlaced=0 / bluray_compat=0 / constrained_intra=0 / bframes=8 / b_pyramid=2 / b_adapt=2 / b_bias=0 / direct=3 / weightb=1 / open_gop=1 / weightp=2 / keyint=240 / keyint_min=23 / scenecut=40 / intra_refresh=0 / rc_lookahead=50 / rc=2pass / mbtree=1 / bitrate=8000 / ratetol=1.0 / qcomp=0.60 / qpmin=0 / qpmax=69 / qpstep=4 / cplxblur=20.0 / qblur=0.5 / vbv_maxrate=14000 / vbv_bufsize=14000 / nal_hrd=none / filler=0 / ip_ratio=1.40 / aq=1:1.10
    Language                                 : English
    Default                                  : Yes
    Forced                                   : No

    Audio #1
    ID                                       : 2
    Format                                   : AC-3
    Format/Info                              : Audio Coding 3
    Format settings, Endianness              : Big
    Codec ID                                 : A_AC3
    Duration                                 : 1 h 36 min
    Bit rate mode                            : Constant
    Bit rate                                 : 192 kb/s
    Channel(s)                               : 2 channels
    Channel positions                        : Front: L R
    Sampling rate                            : 48.0 kHz
    Frame rate                               : 31.250 FPS (1536 SPF)
    Bit depth                                : 16 bits
    Compression mode                         : Lossy
    Stream size                              : 133 MiB (2%)
    Title                                    : AVO Сергей Визгунов
    Language                                 : Russian
    Service kind                             : Complete Main
    Default                                  : Yes
    Forced                                   : No

    Audio #2
    ID                                       : 3
    Format                                   : AC-3
    Format/Info                              : Audio Coding 3
    Format settings, Endianness              : Big
    Codec ID                                 : A_AC3
    Duration                                 : 1 h 36 min
    Bit rate mode                            : Constant
    Bit rate                                 : 192 kb/s
    Channel(s)                               : 2 channels
    Channel positions                        : Front: L R
    Sampling rate                            : 48.0 kHz
    Frame rate                               : 31.250 FPS (1536 SPF)
    Bit depth                                : 16 bits
    Compression mode                         : Lossy
    Stream size                              : 133 MiB (2%)
    Title                                    : AVO Андрей Гаврилов
    Language                                 : Russian
    Service kind                             : Complete Main
    Default                                  : No
    Forced                                   : No

    Audio #3
    ID                                       : 4
    Format                                   : DTS
    Format/Info                              : Digital Theater Systems
    Format profile                           : MA / Core
    Mode                                     : 16
    Format settings, Endianness              : Big
    Codec ID                                 : A_DTS
    Duration                                 : 1 h 36 min
    Bit rate mode                            : Variable / Constant
    Bit rate                                 : 1 792 kb/s / 1 509 kb/s
    Channel(s)                               : 2 channels
    Channel positions                        : Front: L R
    Sampling rate                            : 48.0 kHz
    Frame rate                               : 93.750 FPS (512 SPF)
    Bit depth                                : 24 bits
    Compression mode                         : Lossless / Lossy
    Stream size                              : 1.21 GiB (18%)
    Title                                    : Original
    Language                                 : English
    Default                                  : No
    Forced                                   : No

    Menu
    00:00:00.000                             : en:00:00:00.000
    00:09:25.231                             : en:00:09:25.231
    00:19:51.857                             : en:00:19:51.857
    00:30:00.215                             : en:00:30:00.215
    00:39:49.887                             : en:00:39:49.887
    00:50:08.047                             : en:00:50:08.047
    00:59:31.234                             : en:00:59:31.234
    01:08:48.458                             : en:01:08:48.458
    01:20:14.018                             : en:01:20:14.018
    01:29:35.412                             : en:01:29:35.412
    01:33:49.624                             : en:01:33:49.624Свернуть
    Похожие раздачи Искать похожие
    Инструкция по скачиванию
     1  Качаем uTorrent версии 2.0 и выше
     2  После установки, жмем выше под постером на ссылку Скачать [MediaGet] или Скачать .torrent
     3  Открываем скачанный файл через соответствующий клиент: MediaGet или uTorrent
     4  Ждем пока подключатся участники
     5  Качаем
    Комментарии о  Спонтанное возгорание / Spontaneous Combustion | BDRip 720p 
    Ближайшее в кино
    Вверх