• Игры для PS4
  • Игры для PS3
  • Игры для XBOX360
  • Игры для PC
  • Игры для PS2
  • Игры для PSP
  • Для телефонов
  • Музыка
  • Книги / Журналы
  • Обои
  • Опрос
    Откуда Вы о нас узнали?
      0
    • От знакомых2,1,false,300,full
    • Из социальных сетей2,2,false,300,full
    • Из поисковых систем2,3,false,300,full
    • Другое2,4,false,300,full
    Статистика
    Всего онлайн -
    Гостей -
    Пользователей -
    Короли трекера
    Благодарности () Закрыть
    Информация о фильме
    Название: Мы из будущего
    Год выхода: 2008
    Жанр:  Фантастика, боевик, приключения, военный, история
    Режиссер: Андрей Малюков
    В ролях: Екатерина Климова, Данила Козловский, Владимир Яглыч, Дмитрий Волкострелов, Андрей Терентьев, Даниил Страхов, Борис Галкин, Сергей Маховиков

    О фильме:
    Действие фильма происходит в двух временных пластах: в наши дни и в годы войны, во время тяжелых оборонительных боев лета 1942-года... Главные герои : четверо "черных следопытов", иначе называемые "черные копатели". Они равкапывают места боев, ищут что-нибудь стоящее: медали, ордена, немецкое оружие, документы. Позже следопытам удается отрыть блиндаж, в нем они находят сейф с документами...
    Фотографии в найденных солдатских книжках оказываются фотографии самих следопытов, только имена и фамилии - погибших солдат Красной армии. Пытаясь протрезветь, следопыты отправляются купаться в озеро, и... попадают в 1942 год...



    Выпущено: Россия, А1-Кино видео
    Продолжительность: 01:55:35
    Язык: Русский
    Субтитры: Отсутствуют

    Файл
    Формат: MKV
    Качество: DVDRip-AVC
    Видео: High@L4.1, 720x548@1024x548, 25 fps, ~3018 kbps, 0.306 bit/pixel
    Аудио #1: AC3, 48.0 KHz, 384 Kbps, 6 channels
    Аудио #2: AC3, 48.0 KHz, 192 Kbps, 2 channels

    ***Релиз от: -=DoMiNo=-

    M/I
    x264 info: frame I:1423  Avg QP:17.94  size: 56429
    x264 info: frame P:41672 Avg QP:19.65  size: 27485
    x264 info: frame B:130292 Avg QP:21.41  size: 10638
    x264 info: consecutive B-frames:  3.0%  4.7% 11.7% 21.5% 15.6% 39.4%  2.9%  0.5%  0.2%  0.1%  0.1%  0.1%  0.0%  0.0%  0.0%  0.0%  0.1%

    General
    Unique ID                   : 165363173455584319262341993147034488783 (0x7C67C9EB3CFECDA8614F54852653CFCF)
    Complete name               : Мы из будущего_(2008)_DVDRip-AVC_[-=DoMiNo=-].mkv
    Format                      : Matroska
    Format version              : Version 4
    File size                   : 2.90 GiB
    Duration                    : 1 h 55 min
    Overall bit rate            : 3 597 kb/s
    Movie name                  : Мы из будущего
    Deion                 : Действие картины разворачивается в двух временных пластах: в наши дни и в годы войны, во время тяжелых оборонительных боев августа 1942-го. Главные герои ленты — четверо «черных следопытов» (людей этой сомнительной профессии называют также «черными копателями») — Борман, Череп, Чуха и Спирт. Они ведут раскопки в тех местах, где когда-то шли бои, чтобы потом продать найденные медали, ордена, документы и немецкое оружие. Дело это выгодное, но опасное. Однажды на месте раскопок начинает происходить нечто странное: в найденных солдатских книжках, принадлежавших погибшим солдатам Красной армии, вдруг обнаруживаются фотографии самих «следопытов». Пытаясь прийти в себя, коллеги по «черному» бизнесу отправляются купаться в озере и… попадают в 1942 год. В самый разгар тяжелых боев.
    Attachments                 : poster.jpg
    ACTORS                      : Danila Kozlovsky, Andrey Terentev, Vladimir Yaglych, Dmitriy Volkostrelov, Ekaterina Klimova, Boris Galkin, Daniil Strakhov, Sergey Makhovikov, Igor Chernevich, Ralf Shikha, Zoya Buryak, Sergey Mukhin, Anatoliy Pashinin, Konstantin Sirotkin, Tamara Spiricheva
    COUNTRY                     : Russia
    DATE                        : 2008-01-01
    DIRECTOR                    : Andrey Malyukov
    GENRE                       : военный, фэнтези, боевик, драма
    ITUNEXTC                    : ru-movie|16+|375|
    PUBLISHER                   : A-1 Kino Video
    RATING                      : 7.22

    Video
    ID                          : 1
    Format                      : AVC
    Format/Info                 : Advanced Video Codec
    Format profile              : High@L4.1
    Format settings             : CABAC / 16 Ref Frames
    Format settings, CABAC      : Yes
    Format settings, ReFrames   : 16 frames
    Codec ID                    : V_MPEG4/ISO/AVC
    Duration                    : 1 h 55 min
    Bit rate                    : 3 018 kb/s
    Width                       : 720 pixels
    Height                      : 548 pixels
    Display aspect ratio        : 1.85:1
    Frame rate mode             : Constant
    Frame rate                  : 25.000 FPS
    Color space                 : YUV
    Chroma subsampling          : 4:2:0
    Bit depth                   : 8 bits
    Scan type                   : Progressive
    Bits/(Pixel*Frame)          : 0.306
    Stream size                 : 2.38 GiB (82%)
    Title                       : RIP_BY_-=DoMiNo=-
    Writing library             : x264 core 157 r2901M 7d0ff22
    Encoding settings           : cabac=1 / ref=16 / deblock=1:-3:-3 / analyse=0x3:0x133 / me=umh / subme=11 / psy=1 / psy_rd=1.05:0.15 / mixed_ref=1 / me_range=48 / chroma_me=1 / trellis=2 / 8x8dct=1 / cqm=0 / deadzone=21,11 / fast_pskip=0 / chroma_qp_offset=-3 / threads=6 / lookahead_threads=1 / sliced_threads=0 / nr=0 / decimate=1 / interlaced=0 / bluray_compat=0 / constrained_intra=0 / bframes=16 / b_pyramid=2 / b_adapt=2 / b_bias=0 / direct=3 / weightb=1 / open_gop=0 / weightp=2 / keyint=250 / keyint_min=25 / scenecut=40 / intra_refresh=0 / rc=2pass / mbtree=0 / bitrate=3018 / ratetol=1.0 / qcomp=0.80 / qpmin=0 / qpmax=69 / qpstep=4 / cplxblur=20.0 / qblur=0.5 / ip_ratio=1.40 / pb_ratio=1.30 / aq=1:0.65
    Default                     : Yes
    Forced                      : No
    Color range                 : Limited

    Audio #1
    ID                          : 2
    Format                      : AC-3
    Format/Info                 : Audio Coding 3
    Commercial name             : Dolby Digital
    Codec ID                    : A_AC3
    Duration                    : 1 h 55 min
    Bit rate mode               : Constant
    Bit rate                    : 384 kb/s
    Channel(s)                  : 6 channels
    Channel layout              : L R C LFE Ls Rs
    Sampling rate               : 48.0 kHz
    Frame rate                  : 31.250 FPS (1536 SPF)
    Bit depth                   : 16 bits
    Compression mode            : Lossy
    Stream size                 : 317 MiB (11%)
    Language                    : Russian
    Service kind                : Complete Main
    Default                     : Yes
    Forced                      : No

    Audio #2
    ID                          : 3
    Format                      : AC-3
    Format/Info                 : Audio Coding 3
    Commercial name             : Dolby Digital
    Codec ID                    : A_AC3
    Duration                    : 1 h 55 min
    Bit rate mode               : Constant
    Bit rate                    : 192 kb/s
    Channel(s)                  : 2 channels
    Channel layout              : L R
    Sampling rate               : 48.0 kHz
    Frame rate                  : 31.250 FPS (1536 SPF)
    Bit depth                   : 16 bits
    Compression mode            : Lossy
    Stream size                 : 159 MiB (5%)
    Language                    : Russian
    Service kind                : Complete Main
    Default                     : No
    Forced                      : No

    Menu
    00:00:00.000                : :Глава 1
    00:06:42.560                : :Глава 2
    00:15:37.480                : :Глава 3
    00:25:36.159                : :Глава 4
    00:35:10.880                : :Глава 5
    00:45:50.640                : :Глава 6
    00:54:13.120                : :Глава 7
    01:09:38.840                : :Глава 8
    01:21:28.000                : :Глава 9
    01:32:59.720                : :Глава 10
    01:42:46.960                : :Глава 11
    01:53:01.800                : :Глава 12
    01:55:34.400                : :Глава 13
    01:55:34.880                : :Глава 14Свернуть


    Скриншоты
    [screen]https://i2.imageban.ru/thumbs/2018.12.04/8ff37886690b2d42c6112246565414f2.png[/screen][screen]https://i4.imageban.ru/thumbs/2018.12.04/82767b565828a99c5cd532a78d14e73c.png[/screen][screen]https://i4.imageban.ru/thumbs/2018.12.04/eaec2c91dee5e18a18a0e1fae6e3a85d.png[/screen][screen]https://i6.imageban.ru/thumbs/2018.12.04/68688626f6b67a7900e2dbdbd16f94fa.png[/screen][screen]https://i3.imageban.ru/thumbs/2018.12.04/430bf0fe6e107af86631454121022455.png[/screen][screen]https://i4.imageban.ru/thumbs/2018.12.04/5697c561e1624149772033fcedbebc43.png[/screen][screen]https://i5.imageban.ru/thumbs/2018.12.04/058bd92574cc742c1751ac3e3752c59d.png[/screen][screen]https://i2.imageban.ru/thumbs/2018.12.04/13c9696030760dad65abe8a6147560f3.png[/screen][screen]https://i6.imageban.ru/thumbs/2018.12.04/d4fd2938d46ff45ee127ca2928309763.png[/screen][screen]https://i4.imageban.ru/thumbs/2018.12.04/732bef266cb0152090bbd0e8d3eef725.png[/screen][screen]https://i5.imageban.ru/thumbs/2018.12.04/68dfd2e99069be48c6aedf67e002f7c5.png[/screen][screen]https://i3.imageban.ru/thumbs/2018.12.04/d2876cf1d4ff3c10729f8bb74d4ecf7d.png[/screen][screen]https://i5.imageban.ru/thumbs/2018.12.04/b0dacdbefc355681adf5eb21894b3564.png[/screen][screen]https://i2.imageban.ru/thumbs/2018.12.04/23f7ecc0a5faee7a2afb98b2ee985598.png[/screen][screen]https://i3.imageban.ru/thumbs/2018.12.04/6457dc68ba84f6cce1053f1497911520.png[/screen][screen]https://i5.imageban.ru/thumbs/2018.12.04/b16520f661edc4ea16a7f42efb2410e0.png[/screen][screen]https://i4.imageban.ru/thumbs/2018.12.04/6ab7f9eab131563bdcc344c11ad4cc61.png[/screen][screen]https://i1.imageban.ru/thumbs/2018.12.04/548afbb1c4b078500ce0ba34e4003b53.png[/screen][screen]https://i1.imageban.ru/thumbs/2018.12.04/5bcf7b8ab24c07879af78859b891afbd.png[/screen][screen]https://i4.imageban.ru/thumbs/2018.12.04/e18d513bbbd8ebd1c4430703bd35a468.png[/screen][screen]https://i1.imageban.ru/thumbs/2018.12.04/80e7d7144c419f3c6d1e011e90178540.png[/screen][screen]https://i4.imageban.ru/thumbs/2018.12.04/17ecbf70fd95848a47415bc67479d69f.png[/screen]Свернуть
    Похожие раздачи Искать похожие
    Инструкция по скачиванию
     1  Качаем uTorrent версии 2.0 и выше
     2  После установки, жмем выше под постером на ссылку Скачать [MediaGet] или Скачать .torrent
     3  Открываем скачанный файл через соответствующий клиент: MediaGet или uTorrent
     4  Ждем пока подключатся участники
     5  Качаем
    Комментарии о  Мы из будущего | DVDRip-AVC 
    Ближайшее в кино
    Вверх