• Игры для PS4
  • Игры для PS3
  • Игры для XBOX360
  • Игры для PC
  • Игры для PS2
  • Игры для PSP
  • Для телефонов
  • Музыка
  • Книги / Журналы
  • Обои
  • Опрос
    Удобен ли сайт в использовании?
      0
    • Очень удобен, все понятно1,1,false,300,full
    • Удобен1,2,false,300,full
    • Средне1,3,false,300,full
    • Неудобен, трудно ориентироваться1,4,false,300,full
    • Совсем неудобен1,5,false,300,full
    Статистика
    Всего онлайн -
    Гостей -
    Пользователей -
    Короли трекера
    Благодарности () Закрыть
    Информация о фильме
    Название: Планер / Реклама на радио / Стремящийся ввысь / Радио-летчик
    Оригинальное название: Radio Flyer
    Год выпуска: 1992
    Выпущено: США, Columbia Pictures Corporation, Donner/Shuler-Donner Productions, Stonebridge Entertainment
    Жанр:  Драма, Семейный
    Режиссеры: Ричард Доннер, Дэвид М. Эванс
    В ролях: Том Хэнкс, Элайджа Вуд, Джозеф Маццелло, Адам Болдуин, Лоррейн Бракко, Роберт Мунич, Томас Иэн Николас, Бен Джонсон, Джон Херд, Ной Вердузко, Кайлан Ромеро, Шон Бака, Исаак Окампо, Гэретт Рэтлифф Хенсон, Эбрахам Вердучо, Т.Дж. Эванс

    О фильме: Майк в беседе со своим сыном и его приятелем вспоминает времена своего детства. После того как отец ушел от них, он вместе с матерью, младшим братишкой Бобби и немецкой овчаркой по кличке Шейн переехал в другой город. А вскоре мама снова вышла замуж. Бобби сильно доставалось от нового отчима. Майк часто замечал синяки на теле братишки. Однажды, Майк решил переделать игрушечную модель планера, подаренного мамой, в настоящий самолет и улететь вместе с Бобби в безопасное место…

    Продолжительность: 01:53:30
    Перевод: Профессиональный многоголосый
    Субтитры: Русские, английские
    Навигация по главам: Есть

    Файл
    Качество: WEB-DL 1080p
    Видео: MPEG-4 AVC, 13,1 Мбит/сек, 1920x1080, 23,976 кадра/сек
    Аудио #1: AC3, 1 ch, 192 Кбит/сек | Русский, профессиональный (многоголосый закадровый) 1 канал
    Аудио #2: EAC3, 2 ch, 224 Кбит/сек | Английский, оригинал



    Скриншоты
    [screen]http://img14.lostpic.net/2018/12/03/dbbf2f65a1add6d40e2315457e7f3bb2.png[/screen][screen]http://img14.lostpic.net/2018/12/03/a2a85d04b10f5600db2e8d5547bcce33.png[/screen][screen]http://img14.lostpic.net/2018/12/03/b078e02015293675c6f68a488a6f4538.png[/screen][screen]http://img14.lostpic.net/2018/12/03/235f2ed2aedc0ed9a426edf74c9c6a46.png[/screen][screen]http://img14.lostpic.net/2018/12/03/21fd01eca34b8de6ade7c77481eb283b.png[/screen][screen]http://img14.lostpic.net/2018/12/03/ddce243b15dbe9af8ba1e7941999031b.png[/screen][screen]http://img14.lostpic.net/2018/12/03/7fd80efb21a7ea6679f251f0dbe6f858.png[/screen][screen]http://img14.lostpic.net/2018/12/03/04bad8ff5e924f5550cdad9c93d8557c.png[/screen]Свернуть


    Инфо-файл
    Общее
    Уникальный идентификатор                 : 228238142980922441545336359524206982109 (0xABB511413F0CF065B16D8A01DCB133DD)
    Полное имя                               : Планер.1992.WEB-DL.1080p.mkv
    Формат                                   : Matroska
    Версия формата                           : Version 2
    Размер файла                             : 10,9 Гбайт
    Продолжительность                        : 1 ч. 53 м.
    Режим общего битрейта                    : Переменный
    Общий поток                              : 13,8 Мбит/сек
    Дата кодирования                         : UTC 2018-12-03 15:34:25
    Программа кодирования                    : mkvmerge v5.8.0 ("No Sleep / Pillow") built on Sep  2 2012 15:37:04
    Библиотека кодирования                   : libebml v1.2.3 + libmatroska v1.3.0

    Видео
    Идентификатор                            : 1
    Формат                                   : AVC
    Формат/Информация                        : Advanced Video Codec
    Профиль формата                          : High@L4
    Настройки формата                        : CABAC / 4 Ref Frames
    Параметр CABAC формата                   : Да
    Параметр RefFrames формата               : 4 кадра
    Идентификатор кодека                     : V_MPEG4/ISO/AVC
    Продолжительность                        : 1 ч. 53 м.
    Вид битрейта                             : Переменный
    Битрейт                                  : 13,1 Мбит/сек
    Максимальный битрейт                     : 15,0 Мбит/сек
    Ширина                                   : 1920 пикселей
    Высота                                   : 1080 пикселей
    Соотношение сторон                       : 16:9
    Режим частоты кадров                     : Постоянный
    Частота кадров                           : 23,976 (24000/1001) кадра/сек
    Цветовое пространство                    : YUV
    Субдискретизация насыщенности            : 4:2:0
    Битовая глубина                          : 8 бит
    Тип развёртки                            : Прогрессивная
    Бит/(Пиксели*Кадры)                      : 0.264
    Размер потока                            : 10,4 Гбайт (95%)
    Язык                                     : English
    По умолчанию                             : Да
    Принудительно                            : Нет
    Цветовой диапазон                        : Limited
    Основные цвета                           : BT.709
    Характеристики трансфера                 : BT.709
    Коэффициенты матрицы                     : BT.709

    Аудио #1
    Идентификатор                            : 2
    Формат                                   : AC-3
    Формат/Информация                        : Audio Coding 3
    Идентификатор кодека                     : A_AC3
    Продолжительность                        : 1 ч. 53 м.
    Вид битрейта                             : Постоянный
    Битрейт                                  : 192 Кбит/сек
    Каналы                                   : 1 канал
    Расположение каналов                     : Front: C
    Частота                                  : 48,0 КГц
    Частота кадров                           : 31,250 кадров/сек (1536 SPF)
    Битовая глубина                          : 16 бит
    Метод сжатия                             : С потерями
    Размер потока                            : 156 Мбайт (1%)
    Заголовок                                : MVO | 1 канал
    Язык                                     : Russian
    По умолчанию                             : Да
    Принудительно                            : Нет

    Аудио #2
    Идентификатор                            : 3
    Формат                                   : E-AC-3
    Формат/Информация                        : Enhanced Audio Coding 3
    Идентификатор кодека                     : A_EAC3
    Продолжительность                        : 1 ч. 53 м.
    Вид битрейта                             : Постоянный
    Битрейт                                  : 224 Кбит/сек
    Каналы                                   : 2 канала
    Расположение каналов                     : Front: L R
    Частота                                  : 48,0 КГц
    Частота кадров                           : 187,500 кадров/сек (256 SPF)
    Метод сжатия                             : С потерями
    Задержка видео                           : 12 мс.
    Размер потока                            : 182 Мбайт (2%)
    Заголовок                                : Original
    Язык                                     : English
    По умолчанию                             : Нет
    Принудительно                            : Нет

    Текст #1
    Идентификатор                            : 4
    Формат                                   : UTF-8
    Идентификатор кодека                     : S_TEXT/UTF8
    Идентификатор кодека/Информация          : UTF-8 Plain Text
    Язык                                     : Russian
    По умолчанию                             : Нет
    Принудительно                            : Нет

    Текст #2
    Идентификатор                            : 5
    Формат                                   : UTF-8
    Идентификатор кодека                     : S_TEXT/UTF8
    Идентификатор кодека/Информация          : UTF-8 Plain Text
    Язык                                     : English
    По умолчанию                             : Нет
    Принудительно                            : Нет

    Текст #3
    Идентификатор                            : 6
    Формат                                   : UTF-8
    Идентификатор кодека                     : S_TEXT/UTF8
    Идентификатор кодека/Информация          : UTF-8 Plain Text
    Заголовок                                : SDH
    Язык                                     : English
    По умолчанию                             : Нет
    Принудительно                            : Нет

    Меню
    00:00:00.000                             : en:Start
    00:06:12.350                             : en:A long road ahead
    00:08:19.000                             : en:Geronimo Bill
    00:12:21.000                             : en:The king
    00:16:04.200                             : en:Sold
    00:20:43.000                             : en:The fort
    00:23:58.000                             : en:The legend
    00:28:22.700                             : en:Expedition
    00:32:17.000                             : en:Late nights
    00:36:19.000                             : en:The answer
    00:41:30.000                             : en:The wishing spot
    00:45:23.000                             : en:Recycling
    00:48:43.200                             : en:Big foot?
    00:54:18.000                             : en:Magic spell
    00:57:38.000                             : en:By design
    01:01:48.000                             : en:Touchdown
    01:06:34.000                             : en:"It won"t be long"
    01:09:55.000                             : en:Even worse
    01:14:34.000                             : en:The idea
    01:17:30.900                             : en:On the 7th day
    01:20:53.330                             : en:Thieves
    01:23:40.000                             : en:That bad feeling
    01:27:48.000                             : en:The day
    01:31:12.330                             : en:"Fill "er up."
    01:35:23.999                             : en:Dear mom
    01:42:37.000                             : en:"He"s safe."
    01:43:59.000                             : en:Love Bobby
    01:45:26.000                             : en:A flyerСвернуть


    Дополнительная информация
    • Исходник видео WEB-DL Amazon.Свернуть


    Сборка:[img]http://i1.imageban.ru/out/2018/02/13/db08a675822da337df05f97bda2ce544.gif[/img] [img]http://i3.imageban.ru/out/2018/07/23/276881ff853d23c7f0c2335cfae4252f.png[/img]
    Похожие раздачи Искать похожие
    Инструкция по скачиванию
     1  Качаем uTorrent версии 2.0 и выше
     2  После установки, жмем выше под постером на ссылку Скачать [MediaGet] или Скачать .torrent
     3  Открываем скачанный файл через соответствующий клиент: MediaGet или uTorrent
     4  Ждем пока подключатся участники
     5  Качаем
    Комментарии о  Планер / Radio Flyer | WEB-DL 1080p 
    Ближайшее в кино
    Вверх