• Игры для PS4
  • Игры для PS3
  • Игры для XBOX360
  • Игры для PC
  • Игры для PS2
  • Игры для PSP
  • Для телефонов
  • Музыка
  • Книги / Журналы
  • Обои
  • Опрос
    Удобен ли сайт в использовании?
      0
    • Очень удобен, все понятно1,1,false,300,full
    • Удобен1,2,false,300,full
    • Средне1,3,false,300,full
    • Неудобен, трудно ориентироваться1,4,false,300,full
    • Совсем неудобен1,5,false,300,full
    Статистика
    Всего онлайн -
    Гостей -
    Пользователей -
    Короли трекера
    Благодарности () Закрыть
    Русалка. Озеро мертвых
    «У каждого есть выбор...»

    Год выпуска: 2018
    Страна: Россия
    Производство: СТГ Синема, QS FILMS, Централ Партнершип, Киностудия КИТ
    Жанр:  Фэнтези, ужасы

    Режиссёр: Святослав Подгаевский
    В ролях: Виктория Агалакова, Ефим Петрунин, Никита Еленев, Сесиль Плеже, Игорь Хрипунов, Софья Шидловская, Дарья Ярцева, Дмитрий Ярцев, Алла Артамонова, Эмиль Салес

    Перевод: Не требуется | Лицензия
    Субтитры: Нет
    Реклама: Отсутствует

    Описание: Встреча со странной девушкой на затерянном лесном озере и её поцелуй резко меняют жизнь Ромы. Об этой встрече он очень скоро пожалеет: неизвестный недуг высасывает из него все жизненные силы. Марина готова на всё, чтобы освободить жениха от мистического морока. Что окажется сильнее: проклятье прошлого или настоящая любовь?



    Качество: BDRip-AVC | BDRemux | Русалка. Озеро мертвых (2018) BDRemux 1080p от селезень | GER Transfer | Лицензия
    Продолжительность: 01:26:59

    Формат: MKV
    Видео кодек: MPEG-4 AVC
    Аудио кодек: AC3
    Видео: 1024x428 (2.40:1), 23,976 fps, x264 ~1 934 kbps avg, 0.184 bit/pixel
    Аудио: 48 kHz, AC3 Dolby Digital, 3/2 (L,C,R,l,r) + LFE ch, ~448.00 kbps avg | RUS (Лицензия)

    Дата премьеры (РФ): 12 июля 2018, «Централ Партнершип»
    Цифровой релиз: 14 августа 2018, «Централ Партнершип»

    MediaInfo

    Общее
    Уникальный идентификатор                 : 283521377651483222737661227700455514031 (0xD54C3B29FA802EE2F8B00F1E09F09FAF)
    Полное имя                               : F:OlLanDGroupThe.Mermaid.Lake.of.the.Dead.2018.BDRip(AVC).OlLanDGroup.mkv
    Формат                                   : Matroska
    Версия формата                           : Version 4 / Version 2
    Размер файла                             : 1,44 Гбайт
    Продолжительность                        : 1 ч. 26 м.
    Общий поток                              : 2375 Кбит/сек
    Название фильма                          : The Mermaid Lake of the Dead 2018   #TorpedoUK#
    Дата кодирования                         : UTC 2018-12-04 17:42:56
    Программа кодирования                    : mkvmerge v25.0.0 ("Prog Noir") 64-bit
    Библиотека кодирования                   : libebml v1.3.6 + libmatroska v1.4.9

    Видео
    Идентификатор                            : 1
    Формат                                   : AVC
    Формат/Информация                        : Advanced Video Codec
    Профиль формата                          : High@L4.1
    Параметр CABAC формата                   : Да
    Параметр ReFrames формата                : 10 кадров
    Идентификатор кодека                     : V_MPEG4/ISO/AVC
    Продолжительность                        : 1 ч. 26 м.
    Битрейт                                  : 1934 Кбит/сек
    Ширина                                   : 1024 пикселя
    Высота                                   : 428 пикселей
    Соотношение сторон                       : 2,40:1
    Режим частоты кадров                     : Постоянный
    Частота кадров                           : 23,976 (24000/1001) кадра/сек
    Цветовое пространство                    : YUV
    Субдискретизация насыщенности            : 4:2:0
    Битовая глубина                          : 8 бит
    Тип развёртки                            : Прогрессивная
    Бит/(Пиксели*Кадры)                      : 0.184
    Размер потока                            : 1,17 Гбайт (81%)
    Библиотека кодирования                   : x264 core 146 r2538 121396c
    Настройки программы                      : cabac=1 / ref=10 / deblock=1:-3:-3 / analyse=0x3:0x113 / me=umh / subme=11 / psy=1 / psy_rd=0.97:0.05 / mixed_ref=1 / me_range=48 / chroma_me=1 / trellis=2 / 8x8dct=1 / cqm=0 / deadzone=21,11 / fast_pskip=1 / chroma_qp_offset=-3 / threads=6 / lookahead_threads=1 / sliced_threads=0 / nr=0 / decimate=1 / interlaced=0 / bluray_compat=0 / constrained_intra=0 / bframes=11 / b_pyramid=2 / b_adapt=2 / b_bias=0 / direct=3 / weightb=1 / open_gop=0 / weightp=2 / keyint=240 / keyint_min=23 / scenecut=40 / intra_refresh=0 / rc_lookahead=40 / rc=2pass / mbtree=0 / bitrate=1934 / ratetol=1.0 / qcomp=0.60 / qpmin=0 / qpmax=69 / qpstep=4 / cplxblur=20.0 / qblur=0.5 / vbv_maxrate=50000 / vbv_bufsize=62500 / nal_hrd=none / filler=0 / ip_ratio=1.40 / pb_ratio=1.30 / aq=1:1.00
    Язык                                     : English
    Default                                  : Да
    Forced                                   : Нет

    Аудио
    Идентификатор                            : 2
    Формат                                   : AC-3
    Формат/Информация                        : Audio Coding 3
    Расширение режима                        : CM (complete main)
    Параметр Endianness формата              : Big
    Идентификатор кодека                     : A_AC3
    Продолжительность                        : 1 ч. 26 м.
    Вид битрейта                             : Постоянный
    Битрейт                                  : 448 Кбит/сек
    Каналы                                   : 6 каналов
    Расположение каналов                     : Front: L C R, Side: L R, LFE
    Частота                                  : 48,0 КГц
    Частота кадров                           : 31,250 кадров/сек (1536 spf)
    Битовая глубина                          : 16 бит
    Метод сжатия                             : С потерями
    Размер потока                            : 279 Мбайт (19%)
    Заголовок                                : [License]
    Язык                                     : Russian
    Default                                  : Да
    Forced                                   : Нет

    Меню
    00:00:00.000                             : :Глава 01
    00:04:59.466                             : :Глава 02
    00:14:02.091                             : :Глава 03
    00:21:24.617                             : :Глава 04
    00:29:42.823                             : :Глава 05
    00:37:02.303                             : :Глава 06
    00:45:11.125                             : :Глава 07
    00:54:12.416                             : :Глава 08
    00:59:30.400                             : :Глава 09
    01:05:23.628                             : :Глава 10
    01:13:29.989                             : :Глава 11
    01:19:06.241                             : :Глава 12
    Свернуть


    Похожие раздачи Искать похожие
    Инструкция по скачиванию
     1  Качаем uTorrent версии 2.0 и выше
     2  После установки, жмем выше под постером на ссылку Скачать [MediaGet] или Скачать .torrent
     3  Открываем скачанный файл через соответствующий клиент: MediaGet или uTorrent
     4  Ждем пока подключатся участники
     5  Качаем
    Комментарии о  Русалка. Озеро мертвых | BDRip-AVC 
    Ближайшее в кино
    Вверх