• Игры для PS4
  • Игры для PS3
  • Игры для XBOX360
  • Игры для PC
  • Игры для PS2
  • Игры для PSP
  • Для телефонов
  • Музыка
  • Книги / Журналы
  • Обои
  • Опрос
    Откуда Вы о нас узнали?
      0
    • От знакомых2,1,false,300,full
    • Из социальных сетей2,2,false,300,full
    • Из поисковых систем2,3,false,300,full
    • Другое2,4,false,300,full
    Статистика
    Всего онлайн -
    Гостей -
    Пользователей -
    Короли трекера
    Благодарности () Закрыть
    Год выхода:  2010
    Страна: Япония
    Жанр: Аниме, мультфильм, фэнтези
    Продолжительность: 01:34:12
    Перевод: Дублированный

    Режиссер: Хиромаса Ёнэбаяси

    Описание: История маленьких людей, которые живут рядом с нами, одалживая вещи по чуть-чуть. Их существование хранится в секрете. Но юная Ариэти нарушает запрет. Ее обнаруживает 14-летний Шо, и они становятся лучшими друзьями.

    Качество: BDRip 1080p
    Видео: HEVC/H.265, 1920x1036, ~3649 Kbps
    Аудио 1: AC3, 6 ch, 640 Kbps - Дублированный
    Аудио 2: AC3, 6 ch, 256 Kbps - Английский
    Аудио 3: AC3, 6 ch, 640 Kbps - Японский
    Субтитры: Русские, английские

    [img]https://d.radikal.ru/d04/1810/26/868b0347e583.gif[/img]



    Mediainfo
    Общее
    Уникальный идентификатор                 : 129909441319423526732821011694712594211 (0x61BBA5F79DAE5B4A94EFF2AFC1791F23)
    Полное имя                               : F:РАЗДАЧИАриэтти из страны лилипутов. 2010. 1080p. HEVC. 10 bit.mkv
    Формат                                   : Matroska
    Версия формата                           : Version 4 / Version 2
    Размер файла                             : 3,41 Гбайт
    Продолжительность                        : 1 ч. 34 м.
    Общий поток                              : 5185 Кбит/сек
    Название фильма                          : Рип от Mr. Fox, специально для сайта Kino-mix
    Дата кодирования                         : UTC 2018-12-05 06:57:08
    Программа кодирования                    : mkvmerge v28.2.0 ("The Awakening") 64-bit
    Библиотека кодирования                   : libebml v1.3.6 + libmatroska v1.4.9
    Обложка                                  : Yes
    Attachments                              : cover.jpg

    Видео
    Идентификатор                            : 1
    Формат                                   : HEVC
    Формат/Информация                        : High Efficiency Video Coding
    Профиль формата                          : Main 10@L4.1@High
    Идентификатор кодека                     : V_MPEGH/ISO/HEVC
    Продолжительность                        : 1 ч. 34 м.
    Битрейт                                  : 3649 Кбит/сек
    Ширина                                   : 1920 пикселей
    Высота                                   : 1036 пикселей
    Соотношение сторон                       : 1,85:1
    Режим частоты кадров                     : Постоянный
    Частота кадров                           : 23,976 (24000/1001) кадра/сек
    Цветовое пространство                    : YUV
    Субдискретизация насыщенности            : 4:2:0
    Битовая глубина                          : 10 бит
    Бит/(Пиксели*Кадры)                      : 0.077
    Размер потока                            : 2,40 Гбайт (70%)
    Библиотека кодирования                   : x265 2.8+74-fd517ae68f93:[Windows][GCC 7.3.0][64 bit] 10bit
    Настройки программы                      : cpuid=1111039 / frame-threads=13 / numa-pools=12 / wpp / no-pmode / no-pme / no-psnr / no-ssim / log-level=3 / input-csp=1 / input-res=1920x1036 / interlace=0 / total-frames=0 / level-idc=41 / high-tier=1 / uhd-bd=0 / ref=5 / allow-non-conformance / no-repeat-headers / annexb / no-aud / no-hrd / info / hash=0 / no-temporal-layers / open-gop / min-keyint=24 / keyint=240 / gop-lookahead=0 / bframes=11 / b-adapt=2 / b-pyramid / bframe-bias=0 / rc-lookahead=60 / lookahead-slices=4 / scenecut=40 / radl=0 / no-intra-refresh / ctu=32 / min-cu-size=8 / rect / amp / max-tu-size=32 / tu-inter-depth=4 / tu-intra-depth=4 / limit-tu=1 / rdoq-level=2 / dynamic-rd=0.00 / no-ssim-rd / signhide / no-tskip / nr-intra=0 / nr-inter=0 / no-constrained-intra / no-strong-intra-smoothing / max-merge=4 / limit-refs=2 / limit-modes / me=3 / subme=7 / merange=57 / temporal-mvp / weightp / weightb / no-analyze-src-pics / deblock=-3:-3 / no-sao / no-sao-non-deblock / rd=6 / no-early-skip / no-rskip / no-fast-intra / no-tskip-fast / no-cu-lossless / no-b-intra / no-splitrd-skip / rdpenalty=0 / psy-rd=2.00 / psy-rdoq=1.00 / no-rd-refine / no-lossless / cbqpoffs=0 / crqpoffs=0 / rc=crf / crf=19.0 / qcomp=0.60 / qpstep=1 / stats-write=0 / stats-read=0 / vbv-maxrate=50000 / vbv-bufsize=50000 / vbv-init=0.9 / crf-max=30.0 / crf-min=0.0 / ipratio=1.40 / pbratio=1.30 / aq-mode=1 / aq-strength=0.90 / no-cutree / zone-count=0 / no-strict-cbr / qg-size=32 / no-rc-grain / qpmax=69 / qpmin=0 / no-const-vbv / sar=1 / overscan=0 / videoformat=5 / range=0 / colorprim=2 / transfer=2 / colormatrix=2 / chromaloc=0 / display-window=0 / max-cll=0,0 / min-luma=0 / max-luma=1023 / log2-max-poc-lsb=8 / vui-timing-info / vui-hrd-info / slices=1 / no-opt-qp-pps / no-opt-ref-list-length-pps / no-multi-pass-opt-rps / scenecut-bias=0.05 / no-opt-cu-delta-qp / no-aq-motion / no-hdr / no-hdr-opt / no-dhdr10-opt / no-idr-recovery-sei / analysis-reuse-level=5 / scale-factor=0 / refine-intra=0 / refine-inter=0 / refine-mv=0 / no-limit-sao / ctu-info=0 / no-lowpass-dct / refine-mv-type=0 / copy-pic=1 / max-ausize-factor=1.0 / no-dynamic-refine / no-single-sei
    Default                                  : Да
    Forced                                   : Нет

    Аудио #1
    Идентификатор                            : 2
    Формат                                   : AC-3
    Формат/Информация                        : Audio Coding 3
    Идентификатор кодека                     : A_AC3
    Продолжительность                        : 1 ч. 34 м.
    Вид битрейта                             : Постоянный
    Битрейт                                  : 640 Кбит/сек
    Каналы                                   : 6 каналов
    Расположение каналов                     : Front: L C R, Side: L R, LFE
    Частота                                  : 48,0 КГц
    Частота кадров                           : 31,250 кадров/сек (1536 SPF)
    Битовая глубина                          : 16 бит
    Метод сжатия                             : С потерями
    Задержка видео                           : 100 мс.
    Размер потока                            : 431 Мбайт (12%)
    Заголовок                                : Dub | DD 5.1 @ 640 kbps - CP Digital
    Язык                                     : Russian
    ServiceKind/                       : Complete Main
    Default                                  : Да
    Forced                                   : Нет

    Аудио #2
    Идентификатор                            : 3
    Формат                                   : AC-3
    Формат/Информация                        : Audio Coding 3
    Идентификатор кодека                     : A_AC3
    Продолжительность                        : 1 ч. 34 м.
    Вид битрейта                             : Постоянный
    Битрейт                                  : 256 Кбит/сек
    Каналы                                   : 6 каналов
    Расположение каналов                     : Front: L C R, Side: L R, LFE
    Частота                                  : 48,0 КГц
    Частота кадров                           : 31,250 кадров/сек (1536 SPF)
    Битовая глубина                          : 16 бит
    Метод сжатия                             : С потерями
    Задержка видео                           : 100 мс.
    Размер потока                            : 172 Мбайт (5%)
    Заголовок                                : DD 5.1 @ 256 kbps - Disney
    Язык                                     : English
    ServiceKind/                       : Complete Main
    Default                                  : Нет
    Forced                                   : Нет

    Аудио #3
    Идентификатор                            : 4
    Формат                                   : AC-3
    Формат/Информация                        : Audio Coding 3
    Идентификатор кодека                     : A_AC3
    Продолжительность                        : 1 ч. 34 м.
    Вид битрейта                             : Постоянный
    Битрейт                                  : 640 Кбит/сек
    Каналы                                   : 6 каналов
    Расположение каналов                     : Front: L C R, Side: L R, LFE
    Частота                                  : 48,0 КГц
    Частота кадров                           : 31,250 кадров/сек (1536 SPF)
    Битовая глубина                          : 16 бит
    Метод сжатия                             : С потерями
    Задержка видео                           : 100 мс.
    Размер потока                            : 431 Мбайт (12%)
    Заголовок                                : Original | DD 5.1 @ 640 kbps
    Язык                                     : Japanese
    ServiceKind/                       : Complete Main
    Default                                  : Нет
    Forced                                   : Нет

    Текст #1
    Идентификатор                            : 5
    Формат                                   : UTF-8
    Идентификатор кодека                     : S_TEXT/UTF8
    Идентификатор кодека/Информация          : UTF-8 Plain Text
    Продолжительность                        : 1 ч. 30 м.
    Битрейт                                  : 43 бит/сек
    ElementCount                             : 591
    Размер потока                            : 28,9 Кбайт (0%)
    Заголовок                                : R5 [CP Digital]
    Язык                                     : Russian
    Default                                  : Нет
    Forced                                   : Нет

    Текст #2
    Идентификатор                            : 6
    Формат                                   : UTF-8
    Идентификатор кодека                     : S_TEXT/UTF8
    Идентификатор кодека/Информация          : UTF-8 Plain Text
    Продолжительность                        : 1 ч. 33 м.
    Битрейт                                  : 32 бит/сек
    ElementCount                             : 715
    Размер потока                            : 22,3 Кбайт (0%)
    Заголовок                                : Disney
    Язык                                     : English
    Default                                  : Нет
    Forced                                   : Нет

    Меню
    00:00:00.000                             : en:(01)00:00:00:000
    00:08:16.662                             : en:(02)00:08:16:662
    00:12:35.671                             : en:(03)00:12:35:671
    00:23:24.236                             : en:(04)00:23:24:236
    00:29:18.506                             : en:(05)00:29:18:506
    00:39:05.885                             : en:(06)00:39:05:885
    00:46:36.168                             : en:(07)00:46:36:168
    00:52:08.750                             : en:(08)00:52:08:750
    00:57:56.764                             : en:(09)00:57:56:764
    01:05:24.837                             : en:(10)01:05:24:837
    01:13:19.895                             : en:(11)01:13:19:895
    01:22:19.309                             : en:(12)01:22:19:309
    01:34:14.982                             : en:(13)01:34:14:982Свернуть


    [img]https://c.radikal.ru/c36/1812/96/8ee690dfb7d6.png[/img][img]https://c.radikal.ru/c26/1812/15/341e580d71cd.png[/img][img]https://a.radikal.ru/a34/1812/6b/ebbf3933afff.png[/img][img]https://a.radikal.ru/a33/1812/e1/ad42d9042e6b.png[/img]
    Похожие раздачи Искать похожие
    Инструкция по скачиванию
     1  Качаем uTorrent версии 2.0 и выше
     2  После установки, жмем выше под постером на ссылку Скачать [MediaGet] или Скачать .torrent
     3  Открываем скачанный файл через соответствующий клиент: MediaGet или uTorrent
     4  Ждем пока подключатся участники
     5  Качаем
    Комментарии о  Ариэтти из страны лилипутов / Kari-gurashi no Arietti | BDRip-HEVC 1080p 
    Ближайшее в кино
    Вверх