• Игры для PS4
  • Игры для PS3
  • Игры для XBOX360
  • Игры для PC
  • Игры для PS2
  • Игры для PSP
  • Для телефонов
  • Музыка
  • Книги / Журналы
  • Обои
  • Опрос
    Удобен ли сайт в использовании?
      0
    • Очень удобен, все понятно1,1,false,300,full
    • Удобен1,2,false,300,full
    • Средне1,3,false,300,full
    • Неудобен, трудно ориентироваться1,4,false,300,full
    • Совсем неудобен1,5,false,300,full
    Статистика
    Всего онлайн -
    Гостей -
    Пользователей -
    Короли трекера
    
    Благодарности () Закрыть
    Название: СТЫД: Италия
    Оригинальное название: SKAM: Italia
    Год выпуска: 2018
    Жанр:  Драма
    Выпущено: Италия, TIMvision
    Режиссер: Джулье Андем
    В ролях: Людовика Мартино, Бенедетта Гаргари, Грета Рагуза, Беатриче Бруски, Лука Гризпини, Людовико Терсиньи, Федерико Чезари, Джанкарло Комаре

    О фильме: Перед вами итальянская адаптация известного скандинавского проекта, который рассказывает зрителям о непростом подростковом возрасте. Главные герои - школьники, которым учеба уже надоела, ведь больше всего на свете они хотят завести теплые отношения с представителями противоположного пола и стать по-настоящему счастливыми. Смена приоритетов пришла с неожиданным взрослением. Многочисленные проблемы самостоятельно решить не удается, поэтому персонажам всегда нужен наставник, друг и верный товарищ! Итальянская версия обещает быть горячей и эмоциональной под стать любому итальянскому сериалу.

    [img]https://u.myshows.me/r/56899.png[/img]

    Техданные
    Качество: WEBRip (720p)
    Видео: MPEG-4 AVC, ~  3 905 Кбит/с, 1280x692, 25.000 FPS
    Аудио: AAC, 2 ch, 317 Кбит/с
    Продолжительность: 10 x ~ 00:32:00
    Перевод: Любительский двухголосый закадровый
    Присутствует реклама!



    MI
    General
    Unique ID                   : 330270595359116793290423104232400231663 (0xF877CD8D2A7F5E47D07024360C161CEF)
    Complete name               : D:LakeFIlmsReleasesSkam.Italia.S02.WEBRip.720p.LakeFilmsSkam.Italia.S02E01.WEBRip.720p.LakeFilms.mkv
    Format                      : Matroska
    Format version              : Version 4
    File size                   : 970 MiB
    Duration                    : 32 min 5 s
    Overall bit rate            : 4 225 kb/s
    Encoded date                : UTC 2018-11-01 18:58:53
    Writing application         : mkvmerge v27.0.0 ("Metropolis") 64-bit
    Writing library             : libebml v1.3.6 + libmatroska v1.4.9

    Video
    ID                          : 1
    Format                      : AVC
    Format/Info                 : Advanced Video Codec
    Format profile              : Main@L3.1
    Format settings             : CABAC / 4 Ref Frames
    Format settings, CABAC      : Yes
    Format settings, ReFrames   : 4 frames
    Codec ID                    : V_MPEG4/ISO/AVC
    Duration                    : 32 min 5 s
    Bit rate                    : 3 905 kb/s
    Width                       : 1 280 pixels
    Height                      : 692 pixels
    Display aspect ratio        : 1.85:1
    Frame rate mode             : Constant
    Frame rate                  : 25.000 FPS
    Color space                 : YUV
    Chroma subsampling          : 4:2:0
    Bit depth                   : 8 bits
    Scan type                   : Progressive
    Bits/(Pixel*Frame)          : 0.176
    Stream size                 : 896 MiB (92%)
    Language                    : English
    Default                     : Yes
    Forced                      : No
    Color range                 : Limited
    Color primaries             : BT.709
    Transfer characteristics    : BT.709
    Matrix coefficients         : BT.709

    Audio
    ID                          : 2
    Format                      : AAC LC
    Format/Info                 : Advanced Audio Codec Low Complexity
    Codec ID                    : A_AAC-2
    Duration                    : 32 min 5 s
    Bit rate                    : 317 kb/s
    Channel(s)                  : 2 channels
    Channel layout              : L R
    Sampling rate               : 48.0 kHz
    Frame rate                  : 46.875 FPS (1024 SPF)
    Compression mode            : Lossy
    Stream size                 : 72.8 MiB (8%)
    Language                    : English
    Default                     : Yes
    Forced                      : No
    Свернуть
    Похожие раздачи Искать похожие
    Инструкция по скачиванию
     1  Качаем uTorrent версии 2.0 и выше
     2  После установки, жмем выше под постером на ссылку Скачать [MediaGet] или Скачать .torrent
     3  Открываем скачанный файл через соответствующий клиент: MediaGet или uTorrent
     4  Ждем пока подключатся участники
     5  Качаем
    Комментарии о  Стыд. Италия / SKAM Italia [Сезон 02] | WEBRip 720p 
    Ближайшее в кино
    Вверх