• Игры для PS4
  • Игры для PS3
  • Игры для XBOX360
  • Игры для PC
  • Игры для PS2
  • Игры для PSP
  • Для телефонов
  • Музыка
  • Книги / Журналы
  • Обои
  • Опрос
    Удобен ли сайт в использовании?
      0
    • Очень удобен, все понятно1,1,false,300,full
    • Удобен1,2,false,300,full
    • Средне1,3,false,300,full
    • Неудобен, трудно ориентироваться1,4,false,300,full
    • Совсем неудобен1,5,false,300,full
    Статистика
    Всего онлайн -
    Гостей -
    Пользователей -
    Короли трекера
    
    Благодарности () Закрыть
    Последнее соблазнение / Последний соблазн / The Last Seduction

    Год выхода: 1994
    Страна: США
    Студия:  ITC Entertainment Group
    Жанр:  Триллер, драма, криминал
    Продолжительность: 01:50:12
    Перевод: Профессиональный (многоголосый закадровый), профессиональный (двухголосый закадровый)

    Режиссер: Джон Дал / John Dah
    В ролях: Линда Фиорентино, Билл Пуллман, Зак Файфер, Питер Берг, Брайан Варади,
    Дин Норрис, Донна Уилсон, Мик Скриба, Дж.Т. Уолш

    О фильме: Бриджет хочет иметь все. И сейчас. Цена значения не имеет.
    Она сбегает с миллионом долларов, принадлежащих кредиторам ее мужа, и прячется в маленьком городке под Нью-Йорком.
    Встретив там Майка, она склоняет его к страстному роману. Майк еще никогда не встречал женщину, подобную Бриджет.
    Она умна, шикарна и обворожительна. Она не рассказывает о прошлом и не дает никаких обещаний на будущее.
    Бриджет посвящает Майка в план, как можно быстро заработать. А тем временем разгневанный муж хочет любой ценой вернуть деньги.
    Но Бриджет не намерена сдаваться без боя. И, в конце концов, кто-то попадет на кладбище, кто-то — в тюрьму… а кто-то станет очень-очень богатым.

    [img]http://www.kinopoisk.ru/rating/17686.gif[/img]

    Кодек: х264
    Качество: BDRip 720p (исх. BLUEBIRD)
    Видео: MPEG-4 AVC, 9750 Кбит/с, 1280x720, 23.976 fps
    Аудио 1: Русский, AC-3, 48.0 KHz, 2 ch, 192 Кбит/с, Профессиональный (многоголосый закадровый) Екатеринбург Арт
    Аудио 2: Русский, AC-3, 48.0 KHz, 6 ch, 448 Кбит/с, Профессиональный (многоголосый закадровый) Настроение Видео
    Аудио 3: Русский, AC-3, 48.0 KHz, 2 ch, 192 Кбит/с, Профессиональный (двухголосый закадровый) Ульпаней Эльром
    Аудио 4: Русский, AC-3, 48.0 KHz, 2 ch, 192 Кбит/с, Профессиональный (многоголосый закадровый) ТВЦ
    Аудио 5: Английский, AC-3, 48.0 KHz, 6 ch, 448 Кбит/с, Оригинал
    Субтитры: Русские (впервые в сети к этому фильму от FREEDONOR), английские
    Главы: Есть

    [img]http://img15.lostpic.net/2019/01/06/a10e21d463a5993c488428f8c3bf4958.png[/img][img]http://img15.lostpic.net/2019/01/06/e41e7e2ced7a5acbc9b431193197e5bb.png[/img]  
    [img]http://img15.lostpic.net/2019/01/06/c4ae815733d6c8ee3ab0ef37995f68d6.png[/img][img]http://img15.lostpic.net/2019/01/06/782d01f6df37274a6c73cae804a5a413.png[/img]

    Инфо файл

    x264 [info]: frame I:920   Avg QP:15.31  size:188487
    x264 [info]: frame P:31233 Avg QP:17.53  size: 94004
    x264 [info]: frame B:126387 Avg QP:19.80  size: 39135

    Общее
    Уникальный идентификатор                 : 179032913684515797841021430971024337632 (0x86B07C25A8071BCABB935736C9BCEAE0)
    Полное имя                               : I:коллекцияПоследний соблазн 1994_BDRip 720p_KORSAR.mkv
    Формат                                   : Matroska
    Версия формата                           : Version 2
    Размер файла                             : 8,98 Гбайт
    Продолжительность                        : 1 ч. 50 м.
    Общий поток                              : 11,7 Мбит/сек
    Дата кодирования                         : UTC 2019-01-06 20:12:17
    Программа кодирования                    : mkvmerge v5.8.0 ("No Sleep / Pillow") built on Sep  2 2012 15:37:04
    Библиотека кодирования                   : libebml v1.2.3 + libmatroska v1.3.0

    Видео
    Идентификатор                            : 1
    Формат                                   : AVC
    Формат/Информация                        : Advanced Video Codec
    Профиль формата                          : High@L4.1
    Настройки формата                        : CABAC / 9 Ref Frames
    Параметр CABAC формата                   : Да
    Параметр RefFrames формата               : 9 кадров
    Идентификатор кодека                     : V_MPEG4/ISO/AVC
    Продолжительность                        : 1 ч. 50 м.
    Битрейт                                  : 9750 Кбит/сек
    Ширина                                   : 1280 пикселей
    Высота                                   : 720 пикселей
    Соотношение сторон                       : 16:9
    Режим частоты кадров                     : Постоянный
    Частота кадров                           : 23,976 (24000/1001) кадра/сек
    Цветовое пространство                    : YUV
    Субдискретизация насыщенности            : 4:2:0
    Битовая глубина                          : 8 бит
    Тип развёртки                            : Прогрессивная
    Бит/(Пиксели*Кадры)                      : 0.441
    Размер потока                            : 7,33 Гбайт (82%)
    Библиотека кодирования                   : x264 core 152 r2851kMod ba24899
    Настройки программы                      : cabac=1 / ref=9 / deblock=1:-2:-2 / analyse=0x3:0x113 / me=umh / subme=11 / psy=1 / fade_compensate=0.00 / psy_rd=1.00:0.00 / mixed_ref=1 / me_range=48 / chroma_me=1 / trellis=2 / 8x8dct=1 / cqm=0 / deadzone=21,11 / fast_pskip=0 / chroma_qp_offset=-2 / threads=12 / lookahead_threads=3 / sliced_threads=0 / nr=0 / decimate=0 / interlaced=0 / bluray_compat=0 / constrained_intra=0 / bframes=10 / b_pyramid=2 / b_adapt=2 / b_bias=0 / direct=3 / weightb=1 / open_gop=0 / weightp=2 / keyint=240 / keyint_min=23 / scenecut=40 / intra_refresh=0 / rc_lookahead=40 / rc=2pass / mbtree=0 / bitrate=9750 / ratetol=1.0 / qcomp=0.60 / qpmin=0 / qpmax=39 / qpstep=4 / cplxblur=20.0 / qblur=0.5 / vbv_maxrate=50000 / vbv_bufsize=62500 / nal_hrd=none / filler=0 / ip_ratio=1.25 / pb_ratio=1.30 / aq=1:1.00
    Язык                                     : English
    Default                                  : Да
    Forced                                   : Нет
    Цветовой диапазон                        : Limited
    Основные цвета                           : BT.709
    Характеристики трансфера                 : BT.709
    Коэффициенты матрицы                     : BT.709

    Аудио #1
    Идентификатор                            : 2
    Формат                                   : AC-3
    Формат/Информация                        : Audio Coding 3
    Параметр Endianness формата              : Big
    Идентификатор кодека                     : A_AC3
    Продолжительность                        : 1 ч. 50 м.
    Вид битрейта                             : Постоянный
    Битрейт                                  : 192 Кбит/сек
    Каналы                                   : 2 канала
    Расположение каналов                     : Front: L R
    Частота                                  : 48,0 КГц
    Частота кадров                           : 31,250 кадров/сек (1536 SPF)
    Битовая глубина                          : 16 бит
    Метод сжатия                             : С потерями
    Размер потока                            : 151 Мбайт (2%)
    Заголовок                                : MVO | Екатеринбург Арт
    Язык                                     : Russian
    Default                                  : Да
    Forced                                   : Нет

    Аудио #2
    Идентификатор                            : 3
    Формат                                   : AC-3
    Формат/Информация                        : Audio Coding 3
    Параметр Endianness формата              : Big
    Идентификатор кодека                     : A_AC3
    Продолжительность                        : 1 ч. 50 м.
    Вид битрейта                             : Постоянный
    Битрейт                                  : 448 Кбит/сек
    Каналы                                   : 6 каналов
    Расположение каналов                     : Front: L C R, Side: L R, LFE
    Частота                                  : 48,0 КГц
    Частота кадров                           : 31,250 кадров/сек (1536 SPF)
    Битовая глубина                          : 16 бит
    Метод сжатия                             : С потерями
    Размер потока                            : 353 Мбайт (4%)
    Заголовок                                : MVO | Настроение Видео
    Язык                                     : Russian
    Default                                  : Нет
    Forced                                   : Нет

    Аудио #3
    Идентификатор                            : 4
    Формат                                   : AC-3
    Формат/Информация                        : Audio Coding 3
    Параметр Endianness формата              : Big
    Идентификатор кодека                     : A_AC3
    Продолжительность                        : 1 ч. 50 м.
    Вид битрейта                             : Постоянный
    Битрейт                                  : 192 Кбит/сек
    Каналы                                   : 2 канала
    Расположение каналов                     : Front: L R
    Частота                                  : 48,0 КГц
    Частота кадров                           : 31,250 кадров/сек (1536 SPF)
    Битовая глубина                          : 16 бит
    Метод сжатия                             : С потерями
    Размер потока                            : 151 Мбайт (2%)
    Заголовок                                : DVO | Ульпаней Эльром
    Язык                                     : Russian
    Default                                  : Нет
    Forced                                   : Нет

    Аудио #4
    Идентификатор                            : 5
    Формат                                   : AC-3
    Формат/Информация                        : Audio Coding 3
    Параметр Endianness формата              : Big
    Идентификатор кодека                     : A_AC3
    Продолжительность                        : 1 ч. 50 м.
    Вид битрейта                             : Постоянный
    Битрейт                                  : 192 Кбит/сек
    Каналы                                   : 2 канала
    Расположение каналов                     : Front: L R
    Частота                                  : 48,0 КГц
    Частота кадров                           : 31,250 кадров/сек (1536 SPF)
    Битовая глубина                          : 16 бит
    Метод сжатия                             : С потерями
    Размер потока                            : 151 Мбайт (2%)
    Заголовок                                : MVO | ТВЦ
    Язык                                     : Russian
    Default                                  : Нет
    Forced                                   : Нет

    Аудио #5
    Идентификатор                            : 6
    Формат                                   : AC-3
    Формат/Информация                        : Audio Coding 3
    Параметр Endianness формата              : Big
    Идентификатор кодека                     : A_AC3
    Продолжительность                        : 1 ч. 50 м.
    Вид битрейта                             : Постоянный
    Битрейт                                  : 448 Кбит/сек
    Каналы                                   : 6 каналов
    Расположение каналов                     : Front: L C R, Side: L R, LFE
    Частота                                  : 48,0 КГц
    Частота кадров                           : 31,250 кадров/сек (1536 SPF)
    Битовая глубина                          : 16 бит
    Метод сжатия                             : С потерями
    Размер потока                            : 353 Мбайт (4%)
    Заголовок                                : Original | 5.1
    Язык                                     : English
    Default                                  : Нет
    Forced                                   : Нет

    Текст #1
    Идентификатор                            : 8
    Формат                                   : UTF-8
    Идентификатор кодека                     : S_TEXT/UTF8
    Идентификатор кодека/Информация          : UTF-8 Plain Text
    Язык                                     : Russian
    Default                                  : Нет
    Forced                                   : Нет

    Текст #2
    Идентификатор                            : 9
    Формат                                   : UTF-8
    Идентификатор кодека                     : S_TEXT/UTF8
    Идентификатор кодека/Информация          : UTF-8 Plain Text
    Язык                                     : English
    Default                                  : Нет
    Forced                                   : Нет

    Меню
    00:00:00.000                             : en:Chapter 1
    00:05:46.499                             : en:Chapter 2
    00:11:17.582                             : en:Chapter 3
    00:17:48.707                             : en:Chapter 4
    00:20:54.041                             : en:Chapter 5
    00:27:02.207                             : en:Chapter 6
    00:31:21.249                             : en:Chapter 7
    00:39:12.791                             : en:Chapter 8
    00:42:42.873                             : en:Chapter 9
    00:46:45.707                             : en:Chapter 10
    00:51:34.707                             : en:Chapter 11
    00:58:40.416                             : en:Chapter 12
    01:03:46.582                             : en:Chapter 13
    01:09:06.207                             : en:Chapter 14
    01:18:25.582                             : en:Chapter 15
    01:27:37.624                             : en:Chapter 16
    01:32:53.791                             : en:Chapter 17

    Свернуть


    [img]https://i2.imageban.ru/out/2018/12/06/a170182fef151ffd70b91e4cc8e7f4dc.gif[/img] [img]https://i5.imageban.ru/out/2018/12/06/028cbda372e272916502fa6d9a36818c.png[/img]
    Инструкция по скачиванию
     1  Качаем uTorrent версии 2.0 и выше
     2  После установки, жмем выше под постером на ссылку Скачать [MediaGet] или Скачать .torrent
     3  Открываем скачанный файл через соответствующий клиент: MediaGet или uTorrent
     4  Ждем пока подключатся участники
     5  Качаем
    Комментарии о  Последнее соблазнение / Последний соблазн / The Last Seduction | BDRip 720p 
    Ближайшее в кино
    Вверх