• Игры для PS4
  • Игры для PS3
  • Игры для XBOX360
  • Игры для PC
  • Игры для PS2
  • Игры для PSP
  • Для телефонов
  • Музыка
  • Книги / Журналы
  • Обои
  • Опрос
    Удобен ли сайт в использовании?
      0
    • Очень удобен, все понятно1,1,false,300,full
    • Удобен1,2,false,300,full
    • Средне1,3,false,300,full
    • Неудобен, трудно ориентироваться1,4,false,300,full
    • Совсем неудобен1,5,false,300,full
    Статистика
    Всего онлайн -
    Гостей -
    Пользователей -
    Короли трекера
    
    Благодарности () Закрыть
    Информация о фильме
    Название: Марио
    Оригинальное название: Mario
    Год выхода: 2018
    Жанр: драма, мелодрама, спорт, гей-тема
    Режиссер: Марсель Гислер / Marcel Gisler
    В ролях: Макс Хубахер (Марио), Аарон Альтарас (Леон), Джесси Моравец, Юрген Плюсс, Доро Мюгглер, Андреас Матти, Йорис Гратволь, Шервин Амини, Фабрицио Борсани, Юлиан Кохлин, Беат Марти

    О фильме:
    В центре сюжета - молодые люди, занимающиеся видом спорта, через который ретранслируются окостеневшие представления о мужественности. Марио - лучший бомбардир в юношеской команде. В следующем сезоне он мечтает стать профессиональным футболистом в команде высшего дивизиона. Он влюбляется в новичка команды Леона, с которым они снимают квартиру. Вскоре конкуренты Марио распространяют слухи о его нетрадиционной ориентации. Парни хотят быть вместе, но один готов публично признаться в своей ориентации, а другой нет (у Марио даже есть псевдоподруга). Героя ставят перед выбором: личная жизнь или спортивные блеск и слава, любовь или футбол. Марио должен принять решение, так как мир футбола очень консервативен по сравнению с остальным миром.
    По мнению многих критиков, это лучший гей-фильм 2018 г (что подтверждает высокий рейтинг IMDb и наличие аж 4-х русских озвучек) .


    [img]http://i105.fastpic.ru/big/2018/0413/b7/a93265b8a7712133faa038b0dbb47fb7.png[/img]

    Страна: Швейцария
    Продолжительность: 01:58:38
    Перевод 1: Любительский многоголосый закадровый - Синема Ус
    Перевод 1: Любительский двухголосый закадровый - LakeFilms
    Перевод 3: Любительский одноголосый закадровый - RiN
    Перевод 4: Любительский одноголосый закадровый - RusFilm

    Файл
    Качество: DVDRip-AVC
    Формат: MKV
    Видео: AVC; 720x556@1024x556 ((1,85:1); 25 кадров/сек; 1198 Кбит/сек
    Аудио 1: AAC; 48 КГц; 192 Кбит/сек; 2 каналов; L (Русский, Синема Ус)
    Аудио 2: AAC; 48 КГц; 192 Кбит/сек; 2 каналов; L1 (Русский, RiN)
    Аудио 3: AC3; 48 КГц; 192 Кбит/сек; 2 канала; Оригинал (Немецкий)
    Аудио 4: AAC; 48 КГц; 192 Кбит/сек; 2 каналов; L2 (Русский, LakeFilms, отдельным файлом))
    Аудио 5: AAC; 48 КГц; 192 Кбит/сек; 2 каналов; L1 (Русский, RusFilm, с ненормативной лексикой, отдельным файлом))
    Субтитры 1: русские (отключаемые, SRT, от rw18)
    Субтитры 2: английские (отключаемые, SRT)
    Субтитры 3: французские (отключаемые, SRT)

    Семпл

    Дополнительная информация

    Вот некоторые известные спортсмены , открыто признавшие свою нетрадиционную ориентацию :

    Иан Торп , австралийский пловец
    [screen]https://i3.imageban.ru/out/2018/10/14/917eb863b5c0ca70ffc80dd4b080336e.jpg[/screen]

    Брайан Бойтано , американский фигурист
    [screen]https://i4.imageban.ru/out/2018/10/14/35aa67df6329b52bd1b0c4357b2d1489.jpg[/screen]

    Томас Хитцльшпергер , немецкий футболист
    [screen]https://i5.imageban.ru/out/2018/10/14/70a1678ecba85383b1698a43ee49d8a8.jpg[/screen]

    Орландо Крус , пуэрто-риканский боксёр
    [screen]https://i1.imageban.ru/out/2018/10/14/f1eae5fb603874a0feb7aca492c9bf39.jpg[/screen]

    Джейсон Коллинз , американский баскетболист
    [screen]https://i4.imageban.ru/out/2018/10/14/ce392ada5d615ad03e0ac77916b96770.jpg[/screen]

    Грегори Луганис , американский прыгун в воду
    [screen]https://i6.imageban.ru/out/2018/10/14/958814190e940138289df572c3d4d4c5.jpg[/screen]

    Мартина Навратилова , чешская теннисистка
    [screen]https://i6.imageban.ru/out/2018/10/14/9d8da601943a9e1ff634452d6ceb39ee.jpg[/screen]

    Амели Моресмо , французская теннисистка
    [screen]https://i5.imageban.ru/out/2018/10/14/d16341f10230c6170d5876d1c68c1f65.jpg[/screen]

    Немало спортсменов предпочитают не афишировать свою ориентацию (вплоть до того , что появляются на публике с псевдоподругами или заключают фиктивные браки) . Но их мы называть не будем .
    Свернуть


    MediaInfo

    Общее
    Общее
    Формат : Matroska
    Версия формата : Version 4 / Version 2
    Размер файла : 1,47 Гбайт
    Продолжительность : 1 ч. 58 м.
    Общий поток : 1778 Кбит/сек
    Программа кодирования : mkvmerge v24.0.0 ("Beyond The Pale") 32-bit
    Библиотека кодирования : libebml v1.3.6 + libmatroska v1.4.9

    Видео
    Идентификатор : 1
    Формат : AVC
    Формат/Информация : Advanced Video Codec
    Профиль формата : High@L3.1
    Настройки формата : CABAC / 11 Ref Frames
    Параметр CABAC формата : Да
    Параметр RefFrames формата : 11 кадров
    Идентификатор кодека : V_MPEG4/ISO/AVC
    Продолжительность : 1 ч. 58 м.
    Битрейт : 1198 Кбит/сек
    Ширина : 720 пикселей
    Высота : 556 пикселей
    Соотношение сторон : 1,85:1
    Режим частоты кадров : Постоянный
    Частота кадров : 25,000 кадров/сек
    Цветовое пространство : YUV
    Субдискретизация насыщенности : 4:2:0
    Битовая глубина : 8 бит
    Тип развёртки : Прогрессивная
    Бит/(Пиксели*Кадры) : 0.120
    Размер потока : 1017 Мбайт (67%)
    Библиотека кодирования : x264 core 142 r2479 dd79a61
    Настройки программы : cabac=1 / ref=11 / deblock=1:-1:-1 / analyse=0x3:0x133 / me=umh / subme=10 / psy=1 / psy_rd=1.00:0.15 / mixed_ref=1 / me_range=24 / chroma_me=1 / trellis=2 / 8x8dct=1 / cqm=0 / deadzone=21,11 / fast_pskip=1 / chroma_qp_offset=-3 / threads=12 / lookahead_threads=2 / sliced_threads=0 / nr=0 / decimate=1 / interlaced=0 / bluray_compat=0 / constrained_intra=0 / bframes=8 / b_pyramid=2 / b_adapt=2 / b_bias=0 / direct=3 / weightb=1 / open_gop=0 / weightp=2 / keyint=250 / keyint_min=25 / scenecut=40 / intra_refresh=0 / rc_lookahead=60 / rc=crf / mbtree=1 / crf=18.0 / qcomp=0.60 / qpmin=0 / qpmax=69 / qpstep=4 / vbv_maxrate=17500 / vbv_bufsize=17500 / crf_max=0.0 / nal_hrd=none / filler=0 / ip_ratio=1.40 / aq=1:1.00
    Default : Да
    Forced : Нет
    Цветовой диапазон : Limited
    Основные цвета : BT.601 PAL
    Характеристики трансфера : BT.709
    Коэффициенты матрицы : BT.601

    Аудио #1
    Идентификатор : 2
    Формат : AAC
    Формат/Информация : Advanced Audio Codec
    Профиль формата : LC
    Идентификатор кодека : A_AAC-2
    Продолжительность : 1 ч. 58 м.
    Битрейт : 192 Кбит/сек
    Каналы : 2 канала
    Расположение каналов : Front: L R
    Частота : 48,0 КГц
    Частота кадров : 46,875 кадров/сек (1024 SPF)
    Метод сжатия : С потерями
    Размер потока : 163 Мбайт (11%)
    Заголовок : MVO (Синема Ус)
    Язык : Russian
    Default : Да
    Forced : Нет

    Аудио #2
    Идентификатор : 3
    Формат : AAC
    Формат/Информация : Advanced Audio Codec
    Профиль формата : LC
    Идентификатор кодека : A_AAC-2
    Продолжительность : 1 ч. 58 м.
    Битрейт : 192 Кбит/сек
    Каналы : 2 канала
    Расположение каналов : Front: L R
    Частота : 48,0 КГц
    Частота кадров : 46,875 кадров/сек (1024 SPF)
    Метод сжатия : С потерями
    Размер потока : 163 Мбайт (11%)
    Заголовок : VO (RiN)
    Язык : Russian
    Default : Нет
    Forced : Нет

    Аудио #3
    Идентификатор : 4
    Формат : AC-3
    Формат/Информация : Audio Coding 3
    Идентификатор кодека : A_AC3
    Продолжительность : 1 ч. 58 м.
    Вид битрейта : Постоянный
    Битрейт : 192 Кбит/сек
    Каналы : 2 канала
    Расположение каналов : Front: L R
    Частота : 48,0 КГц
    Частота кадров : 31,250 кадров/сек (1536 SPF)
    Битовая глубина : 16 бит
    Метод сжатия : С потерями
    Размер потока : 163 Мбайт (11%)
    Заголовок : Original
    Язык : German
    ServiceKind/Strin : Complete Main
    Default : Нет
    Forced : Нет

    Текст #1
    Идентификатор : 5
    Формат : UTF-8
    Идентификатор кодека : S_TEXT/UTF8
    Идентификатор кодека/Информация : UTF-8 Plain Text
    Продолжительность : 1 ч. 54 м.
    Битрейт : 74 бит/сек
    ElementCount : 1133
    Размер потока : 62,1 Кбайт (0%)
    Язык : Russian
    Default : Нет
    Forced : Нет

    Текст #2
    Идентификатор : 6
    Формат : UTF-8
    Идентификатор кодека : S_TEXT/UTF8
    Идентификатор кодека/Информация : UTF-8 Plain Text
    Продолжительность : 1 ч. 53 м.
    Битрейт : 41 бит/сек
    ElementCount : 1114
    Размер потока : 34,2 Кбайт (0%)
    Язык : English
    Default : Нет
    Forced : Нет

    Текст #3
    Идентификатор : 7
    Формат : UTF-8
    Идентификатор кодека : S_TEXT/UTF8
    Идентификатор кодека/Информация : UTF-8 Plain Text
    Продолжительность : 1 ч. 53 м.
    Битрейт : 46 бит/сек
    ElementCount : 1115
    Размер потока : 38,4 Кбайт (0%)
    Язык : French
    Default : Нет
    Forced : Нет

    Аудио
    Формат : AAC
    Формат/Информация : Advanced Audio Codec
    Профиль формата : LC
    Идентификатор кодека : A_AAC-2
    Продолжительность : 1 ч. 58 м.
    Битрейт : 192 Кбит/сек
    Каналы : 2 канала
    Расположение каналов : Front: L R
    Частота : 48,0 КГц
    Частота кадров : 46,875 кадров/сек (1024 SPF)
    Метод сжатия : С потерями
    Размер потока : 163 Мбайт (99%)
    Заголовок : DVO (LakeFilms)
    Язык : Russian
    Default : Да
    Forced : Нет

    Аудио
    Формат : AAC
    Формат/Информация : Advanced Audio Codec
    Профиль формата : LC
    Идентификатор кодека : A_AAC-2
    Продолжительность : 1 ч. 58 м.
    Битрейт : 192 Кбит/сек
    Каналы : 2 канала
    Расположение каналов : Front: L R
    Частота : 48,0 КГц
    Частота кадров : 46,875 кадров/сек (1024 SPF)
    Метод сжатия : С потерями
    Размер потока : 163 Мбайт (99%)
    Заголовок : VO (RusFilm)
    Язык : Russian
    Default : Да
    Forced : Нет
    Свернуть


    Похожие раздачи Искать похожие
    Инструкция по скачиванию
     1  Качаем uTorrent версии 2.0 и выше
     2  После установки, жмем выше под постером на ссылку Скачать [MediaGet] или Скачать .torrent
     3  Открываем скачанный файл через соответствующий клиент: MediaGet или uTorrent
     4  Ждем пока подключатся участники
     5  Качаем
    Комментарии о  Марио / Mario | DVDRip-AVC 
    Ближайшее в кино
    Вверх