• Игры для PS4
  • Игры для PS3
  • Игры для XBOX360
  • Игры для PC
  • Игры для PS2
  • Игры для PSP
  • Для телефонов
  • Музыка
  • Книги / Журналы
  • Обои
  • Опрос
    Удобен ли сайт в использовании?
      0
    • Очень удобен, все понятно1,1,false,300,full
    • Удобен1,2,false,300,full
    • Средне1,3,false,300,full
    • Неудобен, трудно ориентироваться1,4,false,300,full
    • Совсем неудобен1,5,false,300,full
    Статистика
    Всего онлайн -
    Гостей -
    Пользователей -
    Короли трекера
    
    Благодарности () Закрыть
    Информация о фильме
    Название: Игра в прятки
    Оригинальное название: Hide and Seek
    Год выпуска: 2005
    Жанр:  ужасы, триллер, детектив
    Режиссер: Джон Полсон
    В ролях: Роберт Де Ниро (David Callaway), Дакота Фаннинг (Emily Callaway), Фамке Янссен (Katherine), Элизабет Шу (Elizabeth), Эми Ирвинг (Alison Callaway), Дилан Бейкер (Sheriff Hafferty), Мелисса Лео (Laura), Роберт Джон Бёрк (Steven), Молли Грант Кэллинс (Amy), Дэвид Чандлер (Mr. Haskins), Стюарт Саммерс (Doctor), Джейк Дилан Бомер (Disturbed Boy)

    Описание:
    Отец-вдовец отчаянно пытается пробиться к своей 9-летней дочери, создавшей себе подлого маниакального воображаемого друга, одержимого идеей мести отцу. Однако воображаемые друзья могут войти и в реальную жизнь...



    MPAA: R - Лицам до 17 лет обязательно присутствие взрослого

    Страна: США, Германия
    Перевод: Дублированный, профессиональный (многоголосый, закадровый) Tycoon, авторский (одноголосый, закадровый) С.Визгунов
    Продолжительность: 01:40:58
    Субтитры: Русские, английские

    Файл
    Формат: Matroska
    Качество: WEB-DL 1080p | Open Matte (Amazon)
    Видео: AVC/H.264, 1920x1080 (16:9), ~12.9 Mbps, 23.976 fps
    Аудио 01: DTS, 6 ch, 768 kbps, CBR | Русский (DUB)
    Аудио 02: AC3, 6 ch, 384 Kbps, CBR | Русский (MVO, Tycoon)
    Аудио 03: AC3, 2 ch, 192 Kbps, CBR | Русский (AVO, С.Визгунов)
    Аудио 04: E-AC3, 6 ch, 640 kbps, CBR | Английский (оригинал)

    Примечания
    Исходник видео WEB-DL Amazon Cinemax
    Open Matte версия фильма, имеет большее наполнение кадра, по сравнению с блюрэй.Свернуть




    M/I
    General
    Unique ID                   : 230380079730972474954696815160684596665 (0xAD5196E3DD092AC1B94969FCF99E4DB9)
    Complete name               : C:03Игра в прятки_Hide and Seek.2005.Open.Matte.1080p.WEB-DL.NNMClub.mkv
    Format                      : Matroska
    Format version              : Version 2
    File size                   : 10.7 GiB
    Duration                    : 1 h 40 min
    Overall bit rate            : 15.2 Mb/s
    Movie name                  : Игра в прятки_Hide and Seek.2005.Open.Matte.1080p.WEB-DL.NNMClub
    Encoded date                : UTC 2019-01-07 16:28:31
    Writing application         : mkvmerge v7.7.0 ("Six Voices") 64bit built on Feb 28 2015 23:39:33
    Writing library             : libebml v1.3.1 + libmatroska v1.4.2

    Video
    ID                          : 1
    Format                      : AVC
    Format/Info                 : Advanced Video Codec
    Format profile              : High@L4
    Format settings             : CABAC / 4 Ref Frames
    Format settings, CABAC      : Yes
    Format settings, ReFrames   : 4 frames
    Codec ID                    : V_MPEG4/ISO/AVC
    Duration                    : 1 h 40 min
    Bit rate                    : 12.9 Mb/s
    Width                       : 1 920 pixels
    Height                      : 1 080 pixels
    Display aspect ratio        : 16:9
    Frame rate mode             : Constant
    Frame rate                  : 23.976 (24000/1001) FPS
    Color space                 : YUV
    Chroma subsampling          : 4:2:0
    Bit depth                   : 8 bits
    Scan type                   : Progressive
    Bits/(Pixel*Frame)          : 0.259
    Stream size                 : 9.08 GiB (85%)
    Title                       : Игра в прятки_Hide and Seek.2005.Open.Matte.1080p.WEB-DL.NNMClub
    Language                    : English
    Default                     : Yes
    Forced                      : No
    Color range                 : Limited
    Color primaries             : BT.709
    Transfer characteristics    : BT.709
    Matrix coefficients         : BT.709

    Audio #1
    ID                          : 2
    Format                      : DTS
    Format/Info                 : Digital Theater Systems
    Codec ID                    : A_DTS
    Duration                    : 1 h 40 min
    Bit rate mode               : Constant
    Bit rate                    : 755 kb/s
    Channel(s)                  : 6 channels
    Channel positions           : Front: L C R, Side: L R, LFE
    Sampling rate               : 48.0 kHz
    Frame rate                  : 93.750 FPS (512 SPF)
    Bit depth                   : 24 bits
    Compression mode            : Lossy
    Stream size                 : 545 MiB (5%)
    Title                       : DUB
    Language                    : Russian
    Default                     : Yes
    Forced                      : No

    Audio #2
    ID                          : 3
    Format                      : AC-3
    Format/Info                 : Audio Coding 3
    Codec ID                    : A_AC3
    Duration                    : 1 h 40 min
    Bit rate mode               : Constant
    Bit rate                    : 384 kb/s
    Channel(s)                  : 6 channels
    Channel positions           : Front: L C R, Side: L R, LFE
    Sampling rate               : 48.0 kHz
    Frame rate                  : 31.250 FPS (1536 SPF)
    Bit depth                   : 16 bits
    Compression mode            : Lossy
    Stream size                 : 277 MiB (3%)
    Title                       : DVO, Tycoon
    Language                    : Russian
    Service kind                : Complete Main
    Default                     : No
    Forced                      : No

    Audio #3
    ID                          : 4
    Format                      : AC-3
    Format/Info                 : Audio Coding 3
    Codec ID                    : A_AC3
    Duration                    : 1 h 40 min
    Bit rate mode               : Constant
    Bit rate                    : 192 kb/s
    Channel(s)                  : 2 channels
    Channel positions           : Front: L R
    Sampling rate               : 48.0 kHz
    Frame rate                  : 31.250 FPS (1536 SPF)
    Bit depth                   : 16 bits
    Compression mode            : Lossy
    Stream size                 : 139 MiB (1%)
    Title                       : AVO, С.Визгунов
    Language                    : Russian
    Service kind                : Complete Main
    Default                     : No
    Forced                      : No

    Audio #4
    ID                          : 5
    Format                      : E-AC-3
    Format/Info                 : Enhanced Audio Coding 3
    Codec ID                    : A_EAC3
    Duration                    : 1 h 40 min
    Bit rate mode               : Constant
    Bit rate                    : 640 kb/s
    Channel(s)                  : 6 channels
    Channel positions           : Front: L C R, Side: L R, LFE
    Sampling rate               : 48.0 kHz
    Frame rate                  : 187.500 FPS (256 SPF)
    Compression mode            : Lossy
    Stream size                 : 462 MiB (4%)
    Title                       : Оригинал
    Language                    : English
    Service kind                : Complete Main
    Default                     : No
    Forced                      : No

    Text #1
    ID                          : 6
    Format                      : UTF-8
    Codec ID                    : S_TEXT/UTF8
    Codec ID/Info               : UTF-8 Plain Text
    Title                       : R5
    Language                    : Russian
    Default                     : No
    Forced                      : No

    Text #2
    ID                          : 7
    Format                      : UTF-8
    Codec ID                    : S_TEXT/UTF8
    Codec ID/Info               : UTF-8 Plain Text
    Title                       : Tycoon
    Language                    : Russian
    Default                     : No
    Forced                      : No

    Text #3
    ID                          : 8
    Format                      : UTF-8
    Codec ID                    : S_TEXT/UTF8
    Codec ID/Info               : UTF-8 Plain Text
    Title                       : SDH
    Language                    : English
    Default                     : No
    Forced                      : No

    Menu
    00:00:00.000                : en:Emily"s Mommy
    00:04:05.411                : en:Beyond Therapy
    00:06:43.611                : en:Starting Over
    00:09:10.508                : en:Main Titles
    00:10:48.356                : en:Welcome to Woodland
    00:13:17.546                : en:The First Night
    00:16:22.856                : en:Into the Woods
    00:18:06.293                : en:New Acquaintances
    00:21:32.249                : en:Charlie
    00:25:31.029                : en:Going Fishing
    00:27:43.411                : en:You Let Her Die
    00:29:54.167                : en:No More Friends
    00:33:18.705                : en:Don"t Talk to Strangers
    00:35:48.104                : en:Where"s Charlie?
    00:38:06.784                : en:The Hidden Room
    00:43:05.124                : en:Dressed for Dinner
    00:46:25.199                : en:Now Look What You"ve Done
    00:50:27.482                : en:What Charlie Says
    00:53:24.492                : en:Our Game
    00:55:59.564                : en:Flashes of Red
    00:58:40.350                : en:The Neighbor"s Problem
    01:02:26.826                : en:Charlie"s Hiding
    01:06:00.665                : en:Looking For Elizabeth
    01:10:48.494                : en:Can You See Now?
    01:12:37.019                : en:Daddy Can"t Save Me
    01:15:07.836                : en:Daddy"s Gone
    01:19:52.579                : en:The Sheriff"s Surprise
    01:22:58.264                : en:Liar, Liar
    01:25:06.101                : en:One Last Game
    01:31:07.003                : en:Hide and Seek
    01:35:44.947                : en:Daddy"s Little Girl
    01:37:10.658                : en:End TitlesСвернуть


    Похожие раздачи Искать похожие
    Инструкция по скачиванию
     1  Качаем uTorrent версии 2.0 и выше
     2  После установки, жмем выше под постером на ссылку Скачать [MediaGet] или Скачать .torrent
     3  Открываем скачанный файл через соответствующий клиент: MediaGet или uTorrent
     4  Ждем пока подключатся участники
     5  Качаем
    Комментарии о  Игра в прятки / Hide and Seek | WEB-DL 1080p 
    Ближайшее в кино
    Вверх