• Игры для PS4
  • Игры для PS3
  • Игры для XBOX360
  • Игры для PC
  • Игры для PS2
  • Игры для PSP
  • Для телефонов
  • Музыка
  • Книги / Журналы
  • Обои
  • Опрос
    Откуда Вы о нас узнали?
      0
    • От знакомых2,1,false,300,full
    • Из социальных сетей2,2,false,300,full
    • Из поисковых систем2,3,false,300,full
    • Другое2,4,false,300,full
    Статистика
    Всего онлайн -
    Гостей -
    Пользователей -
    Короли трекера
    
    Благодарности () Закрыть
    Игра в прятки / Hide and Seek

    Год выхода: 2005
    Страна: США, Германия
    Студия: 20th Century Fox Film Corporation, Fox 2000 Pictures, Josephson Entertainment
    Жанр:  Ужасы, триллер, детектив
    Продолжительность: 01:41:02
    Перевод: Дублированный, профессиональный многоголосый, авторский

    Режиссер: Джон Полсон
    В ролях: Роберт Де Ниро, Дакота Фаннинг, Фамке Янссен, Элизабет Шу, Эми Ирвинг, Дилан Бейкер, Мелисса Лео, Роберт Джон Бёрк,
    Молли Грант Кэллинс, Дэвид Чандлер, Андрей Толубеев, Елизавета Захарьева, Александра Кожевникова, Елена Шульман, Татьяна Иванова

    О фильме: Отец-вдовец отчаянно пытается пробиться к своей 9-летней дочери, создавшей себе подлого маниакального воображаемого друга,
    одержимого идеей мести отцу. Однако воображаемые друзья могут войти и в реальную жизнь...

    [img]http://www.kinopoisk.ru/rating/77142.gif[/img]

    Кодек: х264
    Качество: WEB-DLRip 720p (исх. BLUEBIRD)
    Видео: MPEG-4 AVC, 6500 Кбит/с, 1280x720, 23.976 fps
    Аудио 1: Русский, AC-3, 48.0 KHz, 6 ch, 448 Кбит/с, Дублированный
    Аудио 2: Русский, AC-3, 48.0 KHz, 6 ch, 384 Кбит/с, Профессиональный (многоголосый закадровый) Tycoon-Studio
    Аудио 3: Русский, AC-3, 48.0 KHz, 2 ch, 192 Кбит/с, Профессиональный (Одноголосый закадровый) С. Визгунов
    Аудио 4: Английский, AC-3, 48.0 KHz, 6 ch, 448 Кбит/с, Оригинал
    Субтитры: Русские, английские

    Blu-ray vs WEB DL Amazon

    [img]http://img15.lostpic.net/2019/01/07/3aaa6c7b0e81dd71240c9ae85fab0389.png[/img][img]http://img15.lostpic.net/2019/01/07/b4ab7cb804801915cfe0ee30163ad5e8.png[/img]  
    [img]http://img15.lostpic.net/2019/01/07/1fefaa4ceaef8881044502648b6bac7f.png[/img][img]http://img15.lostpic.net/2019/01/07/d208dd9744a8f7bfbb320e97353e0abb.png[/img]

    Инфо файл

    x264 [info]: frame I:1006  Avg QP:15.06  size:156147
    x264 [info]: frame P:27649 Avg QP:17.46  size: 64000
    x264 [info]: frame B:116605 Avg QP:19.15  size: 25641

    Общее
    Уникальный идентификатор                 : 198170921243581884022398293768110007475 (0x951654C5218FDE219A1304AA648AE4B3)
    Полное имя                               : I:коллекцияИгра в прятки 2005_WEB-DLRip 720p_KORSAR.mkv
    Формат                                   : Matroska
    Версия формата                           : Version 2
    Размер файла                             : 5,62 Гбайт
    Продолжительность                        : 1 ч. 40 м.
    Общий поток                              : 7967 Кбит/сек
    Дата кодирования                         : UTC 2019-01-07 07:41:01
    Программа кодирования                    : mkvmerge v5.8.0 ("No Sleep / Pillow") built on Sep  2 2012 15:37:04
    Библиотека кодирования                   : libebml v1.2.3 + libmatroska v1.3.0

    Видео
    Идентификатор                            : 1
    Формат                                   : AVC
    Формат/Информация                        : Advanced Video Codec
    Профиль формата                          : High@L4.1
    Настройки формата                        : CABAC / 9 Ref Frames
    Параметр CABAC формата                   : Да
    Параметр RefFrames формата               : 9 кадров
    Идентификатор кодека                     : V_MPEG4/ISO/AVC
    Продолжительность                        : 1 ч. 40 м.
    Битрейт                                  : 6500 Кбит/сек
    Ширина                                   : 1280 пикселей
    Высота                                   : 720 пикселей
    Соотношение сторон                       : 16:9
    Режим частоты кадров                     : Постоянный
    Частота кадров                           : 23,976 (24000/1001) кадра/сек
    Цветовое пространство                    : YUV
    Субдискретизация насыщенности            : 4:2:0
    Битовая глубина                          : 8 бит
    Тип развёртки                            : Прогрессивная
    Бит/(Пиксели*Кадры)                      : 0.294
    Размер потока                            : 4,47 Гбайт (80%)
    Библиотека кодирования                   : x264 core 152 r2851kMod ba24899
    Настройки программы                      : cabac=1 / ref=9 / deblock=1:-2:-2 / analyse=0x3:0x113 / me=umh / subme=11 / psy=1 / fade_compensate=0.00 / psy_rd=1.02:0.03 / mixed_ref=1 / me_range=48 / chroma_me=1 / trellis=2 / 8x8dct=1 / cqm=0 / deadzone=21,11 / fast_pskip=0 / chroma_qp_offset=-3 / threads=12 / lookahead_threads=3 / sliced_threads=0 / nr=0 / decimate=0 / interlaced=0 / bluray_compat=0 / constrained_intra=0 / bframes=12 / b_pyramid=2 / b_adapt=2 / b_bias=0 / direct=3 / weightb=1 / open_gop=0 / weightp=2 / keyint=240 / keyint_min=23 / scenecut=40 / intra_refresh=0 / rc_lookahead=40 / rc=2pass / mbtree=0 / bitrate=6500 / ratetol=1.0 / qcomp=0.60 / qpmin=0 / qpmax=39 / qpstep=4 / cplxblur=20.0 / qblur=0.5 / vbv_maxrate=50000 / vbv_bufsize=62500 / nal_hrd=none / filler=0 / ip_ratio=1.25 / pb_ratio=1.30 / aq=1:0.90
    Язык                                     : English
    Default                                  : Да
    Forced                                   : Нет
    Цветовой диапазон                        : Limited
    Основные цвета                           : BT.709
    Характеристики трансфера                 : BT.709
    Коэффициенты матрицы                     : BT.709

    Аудио #1
    Идентификатор                            : 2
    Формат                                   : AC-3
    Формат/Информация                        : Audio Coding 3
    Параметр Endianness формата              : Big
    Идентификатор кодека                     : A_AC3
    Продолжительность                        : 1 ч. 40 м.
    Вид битрейта                             : Постоянный
    Битрейт                                  : 448 Кбит/сек
    Каналы                                   : 6 каналов
    Расположение каналов                     : Front: L C R, Side: L R, LFE
    Частота                                  : 48,0 КГц
    Частота кадров                           : 31,250 кадров/сек (1536 SPF)
    Битовая глубина                          : 16 бит
    Метод сжатия                             : С потерями
    Размер потока                            : 324 Мбайт (6%)
    Заголовок                                : Дублированный
    Язык                                     : Russian
    Default                                  : Да
    Forced                                   : Нет

    Аудио #2
    Идентификатор                            : 3
    Формат                                   : AC-3
    Формат/Информация                        : Audio Coding 3
    Параметр Endianness формата              : Big
    Идентификатор кодека                     : A_AC3
    Продолжительность                        : 1 ч. 40 м.
    Вид битрейта                             : Постоянный
    Битрейт                                  : 384 Кбит/сек
    Каналы                                   : 6 каналов
    Расположение каналов                     : Front: L C R, Side: L R, LFE
    Частота                                  : 48,0 КГц
    Частота кадров                           : 31,250 кадров/сек (1536 SPF)
    Битовая глубина                          : 16 бит
    Метод сжатия                             : С потерями
    Размер потока                            : 277 Мбайт (5%)
    Заголовок                                : Tycoon
    Язык                                     : Russian
    Default                                  : Нет
    Forced                                   : Нет

    Аудио #3
    Идентификатор                            : 4
    Формат                                   : AC-3
    Формат/Информация                        : Audio Coding 3
    Параметр Endianness формата              : Big
    Идентификатор кодека                     : A_AC3
    Продолжительность                        : 1 ч. 40 м.
    Вид битрейта                             : Постоянный
    Битрейт                                  : 192 Кбит/сек
    Каналы                                   : 2 канала
    Расположение каналов                     : Front: L R
    Частота                                  : 48,0 КГц
    Частота кадров                           : 31,250 кадров/сек (1536 SPF)
    Битовая глубина                          : 16 бит
    Метод сжатия                             : С потерями
    Размер потока                            : 139 Мбайт (2%)
    Заголовок                                : С.Визгунов
    Язык                                     : Russian
    Default                                  : Нет
    Forced                                   : Нет

    Аудио #4
    Идентификатор                            : 5
    Формат                                   : AC-3
    Формат/Информация                        : Audio Coding 3
    Параметр Endianness формата              : Big
    Идентификатор кодека                     : A_AC3
    Продолжительность                        : 1 ч. 40 м.
    Вид битрейта                             : Постоянный
    Битрейт                                  : 448 Кбит/сек
    Каналы                                   : 6 каналов
    Расположение каналов                     : Front: L C R, Side: L R, LFE
    Частота                                  : 48,0 КГц
    Частота кадров                           : 31,250 кадров/сек (1536 SPF)
    Битовая глубина                          : 16 бит
    Метод сжатия                             : С потерями
    Размер потока                            : 324 Мбайт (6%)
    Заголовок                                : Оригинал
    Язык                                     : English
    Default                                  : Нет
    Forced                                   : Нет

    Текст #1
    Идентификатор                            : 6
    Формат                                   : UTF-8
    Идентификатор кодека                     : S_TEXT/UTF8
    Идентификатор кодека/Информация          : UTF-8 Plain Text
    Язык                                     : Russian
    Default                                  : Нет
    Forced                                   : Нет

    Текст #2
    Идентификатор                            : 7
    Формат                                   : UTF-8
    Идентификатор кодека                     : S_TEXT/UTF8
    Идентификатор кодека/Информация          : UTF-8 Plain Text
    Язык                                     : Russian
    Default                                  : Нет
    Forced                                   : Нет

    Текст #3
    Идентификатор                            : 8
    Формат                                   : UTF-8
    Идентификатор кодека                     : S_TEXT/UTF8
    Идентификатор кодека/Информация          : UTF-8 Plain Text
    Язык                                     : English
    Default                                  : Нет
    Forced                                   : Нет

    Текст #4
    Идентификатор                            : 9
    Формат                                   : UTF-8
    Идентификатор кодека                     : S_TEXT/UTF8
    Идентификатор кодека/Информация          : UTF-8 Plain Text
    Язык                                     : English
    Default                                  : Нет
    Forced                                   : Нет

    Текст #5
    Идентификатор                            : 10
    Формат                                   : UTF-8
    Идентификатор кодека                     : S_TEXT/UTF8
    Идентификатор кодека/Информация          : UTF-8 Plain Text
    Заголовок                                : SDH
    Язык                                     : English
    Default                                  : Нет
    Forced                                   : Нет

    Свернуть


    [img]https://i2.imageban.ru/out/2018/12/06/a170182fef151ffd70b91e4cc8e7f4dc.gif[/img] [img]https://i5.imageban.ru/out/2018/12/06/028cbda372e272916502fa6d9a36818c.png[/img]
    Похожие раздачи Искать похожие
    Инструкция по скачиванию
     1  Качаем uTorrent версии 2.0 и выше
     2  После установки, жмем выше под постером на ссылку Скачать [MediaGet] или Скачать .torrent
     3  Открываем скачанный файл через соответствующий клиент: MediaGet или uTorrent
     4  Ждем пока подключатся участники
     5  Качаем
    Комментарии о  Игра в прятки / Hide and Seek | WEB-DLRip 720p 
    Ближайшее в кино
    Вверх