• Игры для PS4
  • Игры для PS3
  • Игры для XBOX360
  • Игры для PC
  • Игры для PS2
  • Игры для PSP
  • Для телефонов
  • Музыка
  • Книги / Журналы
  • Обои
  • Опрос
    Удобен ли сайт в использовании?
      0
    • Очень удобен, все понятно1,1,false,300,full
    • Удобен1,2,false,300,full
    • Средне1,3,false,300,full
    • Неудобен, трудно ориентироваться1,4,false,300,full
    • Совсем неудобен1,5,false,300,full
    Статистика
    Всего онлайн -
    Гостей -
    Пользователей -
    Короли трекера
    
    Благодарности () Закрыть
    Информация о фильме
    Название: Суперинтендант
    Оригинальное название: The Super
    Год выхода: 2017
    Жанр: уэасы, триллер
    Режиссер: Штефан Рик
    В ролях: Вэл Килмер, Патрик Флюгер, Луиса Краузе, Маттеа Конфорти, Тейлор Ричардсон, Пол Бен-Виктор

    Описание: Бывший полицейский Фил устраивается суперинтендантом в большой жилой дом в центре Нью-Йорка и переезжает туда жить вместе с двумя дочерьми. В здании происходят загадочные исчезновения жильцов, а один из работников пугающе выглядит и странно себя ведёт.



    Страна: США
    Продолжительность: 01:29:06
    Перевод: профессиоанльный(многоголосый закадровый) HDRezka Studio
    Субтитры: английские
    Оригинальная аудиодорожка: английский

    Файл
    Качество: BDRemux 1080р
    Видео: MPEG-4 AVC, 1080p, 1920:1080, 25892 kbps, 23.976 fps
    Аудио 1: АС3, 2 ch, 48 kHz, 192 kbps HDRezka Studio
    Аудио 2: DTS-HD MA, 6 ch, 48 kHz, 3473 kbps, 24-bit (DTS Core 6 ch, 48 kHz, 1509 kbps) english



    MediaInfo
    General
    Unique ID                                : 293507485791915171866586927173540339958 (0xDCCF7C4EE52F757D316C1680180D60F6)
    Complete name                            : The.Super.2018.Remux.mkv
    Format                                   : Matroska
    Format version                           : Version 4 / Version 2
    File size                                : 18.4 GiB
    Duration                                 : 1 h 29 min
    Overall bit rate mode                    : Variable
    Overall bit rate                         : 29.6 Mb/s
    Encoded date                             : UTC 2019-01-07 12:32:18
    Writing application                      : mkvmerge v20.0.0 ("I Am The Sun") 64-bit
    Writing library                          : libebml v1.3.5 + libmatroska v1.4.8

    Video
    ID                                       : 1
    Format                                   : AVC
    Format/Info                              : Advanced Video Codec
    Format profile                           : High@L4.1
    Format settings                          : CABAC / 4 Ref Frames
    Format settings, CABAC                   : Yes
    Format settings, RefFrames               : 4 frames
    Codec ID                                 : V_MPEG4/ISO/AVC
    Duration                                 : 1 h 29 min
    Bit rate mode                            : Variable
    Bit rate                                 : 25.9 Mb/s
    Maximum bit rate                         : 37.0 Mb/s
    Width                                    : 1 920 pixels
    Height                                   : 1 080 pixels
    Display aspect ratio                     : 16:9
    Frame rate mode                          : Constant
    Frame rate                               : 23.976 (24000/1001) FPS
    Color space                              : YUV
    Chroma subsampling                       : 4:2:0
    Bit depth                                : 8 bits
    Scan type                                : Progressive
    Bits/(Pixel*Frame)                       : 0.521
    Stream size                              : 16.1 GiB (88%)
    Language                                 : English
    Default                                  : Yes
    Forced                                   : No

    Audio #1
    ID                                       : 2
    Format                                   : AC-3
    Format/Info                              : Audio Coding 3
    Codec ID                                 : A_AC3
    Duration                                 : 1 h 29 min
    Bit rate mode                            : Constant
    Bit rate                                 : 192 kb/s
    Channel(s)                               : 2 channels
    Channel positions                        : Front: L R
    Sampling rate                            : 48.0 kHz
    Frame rate                               : 31.250 FPS (1536 SPF)
    Bit depth                                : 16 bits
    Compression mode                         : Lossy
    Stream size                              : 122 MiB (1%)
    Language                                 : Russian
    Service kind                             : Complete Main
    Default                                  : Yes
    Forced                                   : No

    Audio #2
    ID                                       : 3
    Format                                   : DTS
    Format/Info                              : Digital Theater Systems
    Format profile                           : MA / Core
    Codec ID                                 : A_DTS
    Duration                                 : 1 h 29 min
    Bit rate mode                            : Variable / Constant
    Bit rate                                 : 3 473 kb/s / 1 509 kb/s
    Channel(s)                               : 6 channels
    Channel positions                        : Front: L C R, Side: L R, LFE
    Sampling rate                            : 48.0 kHz
    Frame rate                               : 93.750 FPS (512 SPF)
    Bit depth                                : 24 bits
    Compression mode                         : Lossless / Lossy
    Stream size                              : 2.16 GiB (12%)
    Language                                 : English
    Default                                  : No
    Forced                                   : No

    Text
    ID                                       : 4
    Format                                   : UTF-8
    Codec ID                                 : S_TEXT/UTF8
    Codec ID/Info                            : UTF-8 Plain Text
    Duration                                 : 1 h 24 min
    Bit rate                                 : 33 b/s
    Count of elements                        : 755
    Stream size                              : 20.7 KiB (0%)
    Language                                 : English
    Default                                  : No
    Forced                                   : No

    Menu
    00:00:00.000                             : en:Chapter 1
    00:06:45.738                             : en:Chapter 2
    00:13:04.325                             : en:Chapter 3
    00:16:20.479                             : en:Chapter 4
    00:23:33.870                             : en:Chapter 5
    00:28:27.914                             : en:Chapter 6
    00:33:57.952                             : en:Chapter 7
    00:38:33.686                             : en:Chapter 8
    00:43:48.792                             : en:Chapter 9
    00:48:32.618                             : en:Chapter 10
    00:55:59.814                             : en:Chapter 11
    01:00:18.323                             : en:Chapter 12
    01:08:20.346                             : en:Chapter 13
    01:11:29.201                             : en:Chapter 14
    01:16:24.997                             : en:Chapter 15
    01:22:49.547                             : en:Chapter 16Свернуть
    Похожие раздачи Искать похожие
    Инструкция по скачиванию
     1  Качаем uTorrent версии 2.0 и выше
     2  После установки, жмем выше под постером на ссылку Скачать [MediaGet] или Скачать .torrent
     3  Открываем скачанный файл через соответствующий клиент: MediaGet или uTorrent
     4  Ждем пока подключатся участники
     5  Качаем
    Комментарии о  Суперинтендант / The Super | BDRemux 1080p 
    Ближайшее в кино
    Вверх