• Игры для PS4
  • Игры для PS3
  • Игры для XBOX360
  • Игры для PC
  • Игры для PS2
  • Игры для PSP
  • Для телефонов
  • Музыка
  • Книги / Журналы
  • Обои
  • Опрос
    Удобен ли сайт в использовании?
      0
    • Очень удобен, все понятно1,1,false,300,full
    • Удобен1,2,false,300,full
    • Средне1,3,false,300,full
    • Неудобен, трудно ориентироваться1,4,false,300,full
    • Совсем неудобен1,5,false,300,full
    Статистика
    Всего онлайн -
    Гостей -
    Пользователей -
    Короли трекера
    
    Благодарности () Закрыть
    Информация о фильме
    Название: Семь смертных грехов: Узники небес
    Оригинальное название: Nanatsu no Taizai: Tenkuu no Torawarebitoi (The Seven Deadly Sins the Movie: Prisoners of the Sky)
    Страна: Япония [img]http://img12.lostpic.net/2018/05/08/2b4dc5941298e52367fc6240fa2f3c3c.gif[/img]
    Год выхода: 2018
    Жанр: Приключения, фэнтези
    Режиссер: Ясуто Нисиката

    О фильме: После того, как «Семь Смертных грехов» и Элизабет восстановили порядок в королевстве, король принял решение отметить день своего рождения с особой торжественностью. Герои отправляются на затерянный остров за редким ингредиентом — «небесной рыбой». Мелиодас и Хоук попадают в небесный дворец, парящий над облаками. По ошибке капитана принимают за преступника и заключают в темнице. Тем временем местные проводят ритуал защиты от монстра, пробуждающегося раз в три тысячелетия. Помехой становятся «Чёрные рыцари» из армии клана демонов. Они лишают чудовище метки и угрожают обитателям дворца уничтожением. Мелиодасу и его друзьям остаётся только сразиться с ними.

    Студия:[img]http://img15.lostpic.net/2019/01/08/bb4407ebcc6b471bf080cdc9f7ae4113.jpg[/img]

    Продолжительность: 01:39:34
    Перевод: Любительский (одноголосый)
    Озвучил: JAM
    Тайминг и работа со звуком: Lonty
    Сборка контейнера: Eugeo

    Файл
    Формат: mkv
    Качество: WEBRip 1080p
    Видео: H.264; 1920x1080; 4000 Kbps, 23.976fps; (8 bit)
    Аудио 1: AC3 48000 Hz, 2.0, 192 kbps Язык Русский
    Аудио 2: AC3 48000 Hz, 6.0, 384 kbps Язык Японский
    Субтитры: ASS встроенные в составе контейнера Язык субтитров русский ; Перевод: Crunchyroll

    Инфо-файл

    Общее
    Уникальный идентификатор                 : 215136490005397766958360686251690053670 (0xA1D9C7E407153DB3BB33B86A63525026)
    Полное имя                               : G:Anime[AniDub]_The_Seven_Deadly_Sins_the_Movie_-_Prisoners_of_the_Sky_[1080p].mkv
    Формат                                   : Matroska
    Версия формата                           : Version 2
    Размер файла                             : 3,32 Гбайт
    Продолжительность                        : 1 ч. 39 м.
    Режим общего битрейта                    : Переменный
    Общий поток                              : 4776 Кбит/сек
    Дата кодирования                         : UTC 2019-01-07 20:43:01
    Программа кодирования                    : mkvmerge v5.7.0 ("The Whirlwind") built on Jul 29 2012 15:12:35
    Библиотека кодирования                   : libebml v1.2.3 + libmatroska v1.3.0

    Видео
    Идентификатор                            : 1
    Формат                                   : AVC
    Формат/Информация                        : Advanced Video Codec
    Профиль формата                          : Main@L4
    Параметр CABAC формата                   : Да
    Параметр ReFrames формата                : 3 кадра
    Идентификатор кодека                     : V_MPEG4/ISO/AVC
    Продолжительность                        : 1 ч. 39 м.
    Вид битрейта                             : Переменный
    Битрейт                                  : 4220 Кбит/сек
    Максимальный битрейт                     : 6330 Кбит/сек
    Ширина                                   : 1920 пикселей
    Высота                                   : 1080 пикселей
    Соотношение сторон                       : 16:9
    Режим частоты кадров                     : Постоянный
    Частота кадров                           : 23,976 кадра/сек
    Цветовое пространство                    : YUV
    Субдискретизация насыщенности            : 4:2:0
    Битовая глубина                          : 8 бит
    Тип развёртки                            : Прогрессивная
    Бит/(Пиксели*Кадры)                      : 0.085
    Размер потока                            : 2,85 Гбайт (86%)
    Библиотека кодирования                   : x264 core 148 r2715 7e75228
    Настройки программы                      : cabac=1 / ref=3 / deblock=1:0:0 / analyse=0x1:0x111 / me=umh / subme=10 / psy=1 / psy_rd=1.00:0.00 / mixed_ref=1 / me_range=24 / chroma_me=1 / trellis=2 / 8x8dct=0 / cqm=0 / deadzone=21,11 / fast_pskip=1 / chroma_qp_offset=-2 / threads=8 / lookahead_threads=1 / sliced_threads=0 / nr=0 / decimate=1 / interlaced=0 / bluray_compat=0 / stitchable=1 / constrained_intra=0 / bframes=2 / b_pyramid=0 / b_adapt=2 / b_bias=0 / direct=3 / weightb=1 / open_gop=0 / weightp=2 / keyint=48 / keyint_min=25 / scenecut=0 / intra_refresh=0 / rc_lookahead=48 / rc=2pass / mbtree=1 / bitrate=4220 / ratetol=1.0 / qcomp=0.50 / qpmin=6 / qpmax=51 / qpstep=4 / cplxblur=20.0 / qblur=0.5 / vbv_maxrate=6330 / vbv_bufsize=8440 / nal_hrd=vbr / filler=0 / ip_ratio=1.40 / aq=1:1.00
    Default                                  : Да
    Forced                                   : Нет

    Аудио #1
    Идентификатор                            : 2
    Формат                                   : AC-3
    Формат/Информация                        : Audio Coding 3
    Расширение режима                        : CM (complete main)
    Параметр Endianness формата              : Big
    Идентификатор кодека                     : A_AC3
    Продолжительность                        : 1 ч. 39 м.
    Вид битрейта                             : Постоянный
    Битрейт                                  : 192 Кбит/сек
    Каналы                                   : 2 канала
    Расположение каналов                     : Front: L R
    Частота                                  : 48,0 КГц
    Метод сжатия                             : С потерями
    Размер потока                            : 137 Мбайт (4%)
    Заголовок                                : JAM
    Язык                                     : Russian
    Default                                  : Нет
    Forced                                   : Да

    Аудио #2
    Идентификатор                            : 3
    Формат                                   : AC-3
    Формат/Информация                        : Audio Coding 3
    Расширение режима                        : CM (complete main)
    Параметр Endianness формата              : Big
    Идентификатор кодека                     : A_AC3
    Продолжительность                        : 1 ч. 39 м.
    Вид битрейта                             : Постоянный
    Битрейт                                  : 384 Кбит/сек
    Каналы                                   : 6 каналов
    Расположение каналов                     : Front: L C R, Side: L R, LFE
    Частота                                  : 48,0 КГц
    Метод сжатия                             : С потерями
    Размер потока                            : 274 Мбайт (8%)
    Язык                                     : Japanese
    Default                                  : Да
    Forced                                   : Нет

    Текст
    Идентификатор                            : 4
    Формат                                   : ASS
    Идентификатор кодека                     : S_TEXT/ASS
    Идентификатор кодека/Информация          : Advanced Sub Station Alpha
    Метод сжатия                             : Без потерь
    Заголовок                                : Crunchyroll
    Язык                                     : Russian
    Default                                  : Да
    Forced                                   : Нет
    Свернуть


    Похожие раздачи Искать похожие
    Инструкция по скачиванию
     1  Качаем uTorrent версии 2.0 и выше
     2  После установки, жмем выше под постером на ссылку Скачать [MediaGet] или Скачать .torrent
     3  Открываем скачанный файл через соответствующий клиент: MediaGet или uTorrent
     4  Ждем пока подключатся участники
     5  Качаем
    Комментарии о  Семь смертных грехов: Узники небес / Nanatsu no Taizai: Tenkuu no Torawarebitoi | WEBRip 1080p 
    Ближайшее в кино
    Вверх