• Игры для PS4
  • Игры для PS3
  • Игры для XBOX360
  • Игры для PC
  • Игры для PS2
  • Игры для PSP
  • Для телефонов
  • Музыка
  • Книги / Журналы
  • Обои
  • Опрос
    Откуда Вы о нас узнали?
      0
    • От знакомых2,1,false,300,full
    • Из социальных сетей2,2,false,300,full
    • Из поисковых систем2,3,false,300,full
    • Другое2,4,false,300,full
    Статистика
    Всего онлайн -
    Гостей -
    Пользователей -
    Короли трекера
    
    Благодарности () Закрыть
    Информация о фильме
    Название: Палата
    Оригинальное название: The Ward
    Год выхода: 2010
    Жанр:  Ужасы, триллер
    Режиссер: Джон Карпентер
    В ролях: Эмбер Хёрд, Линдси Фонсека, Мэми Гаммер, Даниэль Панабэйкер, Лора Ли, Джаред Харрис, Дэн Андерсон, Мика Бурем, Сузанна Берни, Шон Кук, Р.Дж. Хэмптон, Джилиан Крамер, Милош Милицевич, Сали Сейлер, Сидни Свини

    О фильме :
    Кристен проходит лечение в психиатрической лечебнице. Вместе с ней проходят лечение еще четыре девушки. По ночам, когда больница погружается во тьму, она слышит странные пугающие звуки и понимает, что они тут не одни. Одна за другой девушки начинают исчезать, и Кристен понимает, что должна как можно скорее выбраться отсюда. Пытаясь сбежать, она понимает, что истинная природа звуков намного ужаснее, чем могло показаться вначале.



    Страна: США
    Студия: FilmNation Entertainment, Premiere Picture, Echo Lake Productions (I)
    Продолжительность: 01:28:55
    Перевод: Профессиональный (полное дублирование)

    Файл
    Формат: MKV
    Качество: BDRip-AVC (BDRemux 1080p)
    Видео: MPEG-4 AVC, 800x340, - 1096 Кбит/с
    Аудио: [img]http://i93.fastpic.ru/big/2017/0727/c0/4b72f0369a3393219ed5935e91fc15c0.gif[/img] AAC-HE, 2 ch, - 76 Кбит/с
    Субтитры: Русские, английские

    MI
    Общее
    Уникальный идентификатор : 239738750205531390268161094019333117232 (0xB45C00F80F1CBEAA8E370A62D53A5530)
    Полное имя : D:MOVIESThe Ward.2010.BDRip-AVC.ExKinoRay.mkv
    Формат : Matroska
    Версия формата : Version 4 / Version 2
    Размер файла : 746 Мбайт
    Продолжительность : 1 ч. 28 м.
    Общий поток : 1174 Кбит/сек
    Дата кодирования : UTC 2019-01-08 04:30:11
    Программа кодирования : mkvmerge v15.0.0 ("Duel with the Devil") 64-bit
    Библиотека кодирования : libebml v1.3.5 + libmatroska v1.4.5

    Видео
    Идентификатор : 1
    Формат : AVC
    Формат/Информация : Advanced Video Codec
    Профиль формата : High@L4.1
    Параметр CABAC формата : Да
    Параметр RefFrames формата : 12 кадров
    Идентификатор кодека : V_MPEG4/ISO/AVC
    Продолжительность : 1 ч. 28 м.
    Битрейт : 1096 Кбит/сек
    Ширина : 800 пикселей
    Высота : 340 пикселей
    Соотношение сторон : 2,35:1
    Режим частоты кадров : Постоянный
    Частота кадров : 23,976 (24000/1001) кадра/сек
    Цветовое пространство : YUV
    Субдискретизация насыщенности : 4:2:0
    Битовая глубина : 8 бит
    Тип развёртки : Прогрессивная
    Бит/(Пиксели*Кадры) : 0.168
    Размер потока : 697 Мбайт (93%)
    Библиотека кодирования : x264 core 152 r2851kMod ba24899
    Настройки программы : cabac=1 / ref=12 / deblock=1:-2:-2 / analyse=0x3:0x133 / me=umh / subme=10 / psy=1 / fade_compensate=0.00 / psy_rd=1.00:0.16 / mixed_ref=1 / me_range=32 / chroma_me=1 / trellis=2 / 8x8dct=1 / cqm=0 / deadzone=21,11 / fast_pskip=0 / chroma_qp_offset=-3 / threads=6 / lookahead_threads=1 / sliced_threads=0 / nr=0 / decimate=0 / interlaced=0 / bluray_compat=0 / constrained_intra=0 / bframes=11 / b_pyramid=2 / b_adapt=2 / b_bias=0 / direct=3 / weightb=1 / open_gop=0 / weightp=2 / keyint=240 / keyint_min=23 / scenecut=40 / intra_refresh=0 / rc_lookahead=40 / rc=2pass / mbtree=1 / bitrate=1096 / ratetol=1.0 / qcomp=0.60 / qpmin=0 / qpmax=69 / qpstep=4 / cplxblur=20.0 / qblur=0.5 / ip_ratio=1.40 / aq=3:1.00
    Default : Да
    Forced : Нет

    Аудио
    Идентификатор : 2
    Формат : AAC
    Формат/Информация : Advanced Audio Codec
    Профиль формата : HE-AAC / LC
    Идентификатор кодека : A_AAC
    Продолжительность : 1 ч. 28 м.
    Битрейт : 76,0 Кбит/сек
    Каналы : 2 канала
    Расположение каналов : Front: L R
    Частота : 48,0 КГц / 24,0 КГц
    Частота кадров : 23,438 кадра/сек (1024 SPF)
    Метод сжатия : С потерями
    Задержка видео : 31 мс.
    Размер потока : 48,3 Мбайт (6%)
    Default : Да
    Forced : Нет

    Текст #1
    Идентификатор : 3
    Формат : UTF-8
    Идентификатор кодека : S_TEXT/UTF8
    Идентификатор кодека/Информация : UTF-8 Plain Text
    Продолжительность : 1 ч. 22 м.
    Битрейт : 43 бит/сек
    ElementCount : 591
    Размер потока : 26,2 Кбайт (0%)
    Язык : Russian
    Default : Нет
    Forced : Нет

    Текст #2
    Идентификатор : 4
    Формат : UTF-8
    Идентификатор кодека : S_TEXT/UTF8
    Идентификатор кодека/Информация : UTF-8 Plain Text
    Продолжительность : 1 ч. 23 м.
    Битрейт : 34 бит/сек
    ElementCount : 797
    Размер потока : 20,8 Кбайт (0%)
    Заголовок : Sub-CDH
    Язык : English
    Default : Нет
    Forced : Нет

    Меню
    00:00:00.000 : en:00:00:00.000
    00:07:29.157 : en:00:07:29.157
    00:13:29.475 : en:00:13:29.475
    00:20:24.265 : en:00:20:24.265
    00:28:27.706 : en:00:28:27.706
    00:38:38.024 : en:00:38:38.024
    00:42:20.455 : en:00:42:20.455
    00:50:58.931 : en:00:50:58.931
    00:56:31.972 : en:00:56:31.972
    01:05:56.286 : en:01:05:56.286
    01:11:34.749 : en:01:11:34.749
    01:24:30.649 : en:01:24:30.649
    Свернуть


    Скриншоты

    [screen]http://img15.lostpic.net/2019/01/08/872a697fd29f9802c863f5e922fad80c.png[/screen][screen]http://img15.lostpic.net/2019/01/08/0f43eca21826f4fffaa585efa329c293.png[/screen][screen]http://img15.lostpic.net/2019/01/08/830207a5de459e3b56af5de64f2c9ffd.png[/screen][screen]http://img15.lostpic.net/2019/01/08/0140706392c6e55fab7ec3612cafe9e3.png[/screen][screen]http://img15.lostpic.net/2019/01/08/fa0b6bbf2f9bb39263f243ac198d3155.png[/screen][screen]http://img15.lostpic.net/2019/01/08/882738736a2ae64197932ac129e000f5.png[/screen][screen]http://img15.lostpic.net/2019/01/08/df0c0384b56ffcdd9f956a74397ea6a5.png[/screen][screen]http://img15.lostpic.net/2019/01/08/bb4da537a237fa48a9462e21bb832a86.png[/screen]
    Свернуть


    [img]http://i101.fastpic.ru/big/2018/0205/db/2bb5d8d6418a0fdc34277325cb111edb.gif[/img][img]http://i92.fastpic.ru/big/2017/0727/ee/d5deb5b73669b4c45974c6b5d6c309ee.gif[/img] [img]http://img12.lostpic.net/2018/03/09/13af6981458d1d0b6a9d5e5286e0688e.gif[/img][img]http://i92.fastpic.ru/big/2017/0727/34/cf9a17c70dfe7fe87e42af3f9f29e734.gif[/img]
    Похожие раздачи Искать похожие
    Инструкция по скачиванию
     1  Качаем uTorrent версии 2.0 и выше
     2  После установки, жмем выше под постером на ссылку Скачать [MediaGet] или Скачать .torrent
     3  Открываем скачанный файл через соответствующий клиент: MediaGet или uTorrent
     4  Ждем пока подключатся участники
     5  Качаем
    Комментарии о  Палата / The Ward | BDRip-AVC 
    Ближайшее в кино
    Вверх