• Игры для PS4
  • Игры для PS3
  • Игры для XBOX360
  • Игры для PC
  • Игры для PS2
  • Игры для PSP
  • Для телефонов
  • Музыка
  • Книги / Журналы
  • Обои
  • Опрос
    Удобен ли сайт в использовании?
      0
    • Очень удобен, все понятно1,1,false,300,full
    • Удобен1,2,false,300,full
    • Средне1,3,false,300,full
    • Неудобен, трудно ориентироваться1,4,false,300,full
    • Совсем неудобен1,5,false,300,full
    Статистика
    Всего онлайн -
    Гостей -
    Пользователей -
    Короли трекера
    
    Благодарности () Закрыть
    Информация о фильме
    Название: Теряя Чейз
    Оригинальное название: Losing Chase
    Год выпуска: 1996
    Выпущено: США, Hallmark Entertainment
    Жанр:  Драма
    Режиссер: Кевин Бэйкон
    В ролях: Хелен Миррен, Кира Седжвик, Бо Бриджес, Майкл Ярмуш, Лукас Дентон, Элва Мэй Хувер, Нэнси Битти, Рино Романо, Саймон Рейнольдс

    О фильме: Чейз всю свою жизнь живёт в небольшом городке, замужем за Ричардом, ей нравится её городок, в котором она принадлежит к сливкам местного общества. Но её отношения с мужем её не устраивают, и она порывает с ним. Ричард пытается наладить семейные отношения, для этого он нанимает домохозяйку по имени Элизабет, чтобы разгрузить Чейз от домашних дел. Но всё происходит наоборот: в Элизабет Чейз находит родственную душу и между ними возникает сильная привязанность, перерастающая в нечто большее...

    Продолжительность: 01:33:17
    Перевод: Авторский
    Субтитры: Английские

    Файл
    Качество: WEB-DL 1080p
    Видео: MPEG-4 AVC, 10000 Кбит/сек, 1920x1080, 23,976 кадра/сек
    Аудио #1: AC3, 2 ch, 192 Кбит/сек | Русский, авторский (одноголосый закадровый) Антон Алексеев
    Аудио #2: AC3, 2 ch, 192 Кбит/сек | Английский, оригинал



    Скриншоты
    [screen]http://img15.lostpic.net/2019/01/07/b855bc82adfb3a06c7dd259c99c06e0c.png[/screen][screen]http://img15.lostpic.net/2019/01/07/d606314d0171bbfea0225b05e8259348.png[/screen][screen]http://img15.lostpic.net/2019/01/07/7a10f59bf7c63636e0a4dd58d76f1d62.png[/screen][screen]http://img15.lostpic.net/2019/01/07/afe13533e943f131b784456d2b01cfe4.png[/screen][screen]http://img15.lostpic.net/2019/01/07/9cd1421712b9fc9784665e2b41a2268e.png[/screen][screen]http://img15.lostpic.net/2019/01/07/6b1a912cfe0a72cfbef0a8f6dacb45b8.png[/screen][screen]http://img15.lostpic.net/2019/01/07/ca5b0c8abd1d8b13d28c67d0f2964c62.png[/screen][screen]http://img15.lostpic.net/2019/01/07/58f884a819d414e9ee224044ca79fc2b.png[/screen]Свернуть


    Инфо-файл
    Общее
    Уникальный идентификатор                 : 236667157181064216515500620456233977014 (0xB20C6FBD9958618EA57F5EF42A4AC4B6)
    Полное имя                               : Теряя.Чейз.1996.WEB-DL.1080p.mkv
    Формат                                   : Matroska
    Версия формата                           : Version 2
    Размер файла                             : 6,71 Гбайт
    Продолжительность                        : 1 ч. 33 м.
    Общий поток                              : 10,3 Мбит/сек
    Дата кодирования                         : UTC 2019-01-07 08:24:43
    Программа кодирования                    : mkvmerge v5.8.0 ("No Sleep / Pillow") built on Sep  2 2012 15:37:04
    Библиотека кодирования                   : libebml v1.2.3 + libmatroska v1.3.0

    Видео
    Идентификатор                            : 1
    Формат                                   : AVC
    Формат/Информация                        : Advanced Video Codec
    Профиль формата                          : High@L4
    Настройки формата                        : CABAC / 4 Ref Frames
    Параметр CABAC формата                   : Да
    Параметр RefFrames формата               : 4 кадра
    Параметр GOP формата                     : M=4, N=48
    Идентификатор кодека                     : V_MPEG4/ISO/AVC
    Продолжительность                        : 1 ч. 33 м.
    Вид битрейта                             : Постоянный
    Битрейт                                  : 10000 Кбит/сек
    Ширина                                   : 1920 пикселей
    Высота                                   : 1080 пикселей
    Соотношение сторон                       : 16:9
    Режим частоты кадров                     : Постоянный
    Частота кадров                           : 23,976 (24000/1001) кадра/сек
    Цветовое пространство                    : YUV
    Субдискретизация насыщенности            : 4:2:0
    Битовая глубина                          : 8 бит
    Тип развёртки                            : Прогрессивная
    Бит/(Пиксели*Кадры)                      : 0.201
    Размер потока                            : 6,33 Гбайт (94%)
    Язык                                     : English
    По умолчанию                             : Да
    Принудительно                            : Нет
    Цветовой диапазон                        : Limited
    Основные цвета                           : BT.709
    Характеристики трансфера                 : BT.709
    Коэффициенты матрицы                     : BT.709

    Аудио #1
    Идентификатор                            : 2
    Формат                                   : AC-3
    Формат/Информация                        : Audio Coding 3
    Идентификатор кодека                     : A_AC3
    Продолжительность                        : 1 ч. 33 м.
    Вид битрейта                             : Постоянный
    Битрейт                                  : 192 Кбит/сек
    Каналы                                   : 2 канала
    Расположение каналов                     : Front: L R
    Частота                                  : 48,0 КГц
    Частота кадров                           : 31,250 кадров/сек (1536 SPF)
    Битовая глубина                          : 16 бит
    Метод сжатия                             : С потерями
    Размер потока                            : 128 Мбайт (2%)
    Заголовок                                : AVO | А. Алексеев
    Язык                                     : Russian
    По умолчанию                             : Да
    Принудительно                            : Нет

    Аудио #2
    Идентификатор                            : 3
    Формат                                   : AC-3
    Формат/Информация                        : Audio Coding 3
    Идентификатор кодека                     : A_AC3
    Продолжительность                        : 1 ч. 33 м.
    Вид битрейта                             : Постоянный
    Битрейт                                  : 192 Кбит/сек
    Каналы                                   : 2 канала
    Расположение каналов                     : Front: L R
    Частота                                  : 48,0 КГц
    Частота кадров                           : 31,250 кадров/сек (1536 SPF)
    Битовая глубина                          : 16 бит
    Метод сжатия                             : С потерями
    Размер потока                            : 128 Мбайт (2%)
    Язык                                     : English
    По умолчанию                             : Нет
    Принудительно                            : Нет

    Текст #1
    Идентификатор                            : 4
    Формат                                   : UTF-8
    Идентификатор кодека                     : S_TEXT/UTF8
    Идентификатор кодека/Информация          : UTF-8 Plain Text
    Язык                                     : English
    По умолчанию                             : Нет
    Принудительно                            : Нет

    Текст #2
    Идентификатор                            : 5
    Формат                                   : UTF-8
    Идентификатор кодека                     : S_TEXT/UTF8
    Идентификатор кодека/Информация          : UTF-8 Plain Text
    Заголовок                                : SDH
    Язык                                     : English
    По умолчанию                             : Нет
    Принудительно                            : НетСвернуть


    Дополнительная информация
    • Исходник видео WEB-DL Amazon.Свернуть


    Сборка:[img]http://i1.imageban.ru/out/2018/02/13/db08a675822da337df05f97bda2ce544.gif[/img] [img]http://i3.imageban.ru/out/2018/07/23/276881ff853d23c7f0c2335cfae4252f.png[/img]
    Похожие раздачи Искать похожие
    Инструкция по скачиванию
     1  Качаем uTorrent версии 2.0 и выше
     2  После установки, жмем выше под постером на ссылку Скачать [MediaGet] или Скачать .torrent
     3  Открываем скачанный файл через соответствующий клиент: MediaGet или uTorrent
     4  Ждем пока подключатся участники
     5  Качаем
    Комментарии о  Теряя Чейз / Losing Chase | WEB-DL 1080p 
    Ближайшее в кино
    Вверх