• Игры для PS4
  • Игры для PS3
  • Игры для XBOX360
  • Игры для PC
  • Игры для PS2
  • Игры для PSP
  • Для телефонов
  • Музыка
  • Книги / Журналы
  • Обои
  • Опрос
    Откуда Вы о нас узнали?
      0
    • От знакомых2,1,false,300,full
    • Из социальных сетей2,2,false,300,full
    • Из поисковых систем2,3,false,300,full
    • Другое2,4,false,300,full
    Статистика
    Всего онлайн -
    Гостей -
    Пользователей -
    Короли трекера
    
    Благодарности () Закрыть
    Информация о фильме
    Название: Расплата
    Оригинальное название: The Accountant
    Год выпуска: 2016
    Жанр:  Боевик, триллер, драма, криминал
    Режиссер: Гэвин О’Коннор

    В ролях: Бен Аффлек, Анна Кендрик, Дж.К. Симмонс, Джон Бернтал, Джеффри Тэмбор, Синтия Аддай-Робинсон, Джон Литгоу, Джин Смарт, Энди Умбергер, Элисон Райт

    О фильме:
    Лента расскажет историю математического гения Кристиана Вульфа, который подрабатывает аудитором для самых опасных преступных организаций. Когда ему «на хвост» садится отдел по борьбе с преступностью Министерства финансов во главе с Рэем Кингом Кристиан решает найти себе законопослушного клиента и проводит аудит в компании по производству новейшей робототехники, где сотрудница финансового отдела обнаружила «нестыковочку» в миллионы долларов. Но стоит Кристиану взяться за счета и выйти на след, как в деле начинают появляться жертвы.



    MPAA: R - Лицам до 17 лет обязательно присутствие взрослого

    Страна: США
    Студия: Electric City Entertainment, RatPac-Dune Entertainment, Warner Bros. Pictures, Zero Gravity Management
    Продолжительность: 02:07:53
    Перевод: Дублированный
    Субтитры: Русские (forced, full-length, SDH), английские (full-length, SDH)

    Файл
    Формат: Matroska
    Качество: WEB-DLRip-AVC | Open Matte | (исх-BLUEBIRD)
    Видео: 1024x576 at 23.976 fps, x264, ~2320 kbps
    Аудио: AC3, 6 ch, ~640 kbps - Русский

    ***Релиз от: -=DoMiNo=-

    Blu-ray vs Open Matte

    M/I
    x264 info: frame I:1522  Avg QP:17.69  size: 60353
    x264 info: frame P:39098 Avg QP:18.44  size: 22233
    x264 info: frame B:143360 Avg QP:19.43  size:  9193
    x264 info: consecutive B-frames:  1.9%  1.8%  5.2% 28.9% 15.8% 32.9%  5.8%  3.8%  1.7%  0.6%  0.4%  0.3%  0.9%

    General
    Unique ID                   : 188285005961988770138995441784565738921 (0x8DA65F83E22C56B3CC73C838C8C72DA9)
    Complete name               : Расплата_(2016)_WEB_DLRIP-AVC_O.M_[-=DoMiNo=-].mkv
    Format                      : Matroska
    Format version              : Version 4
    File size                   : 2.70 GiB
    Duration                    : 2 h 7 min
    Overall bit rate            : 3 020 kb/s
    Movie name                  : The Accountant (2016)
    Cover                       : Yes
    Attachments                 : cover.jpg

    Video
    ID                          : 1
    Format                      : AVC
    Format/Info                 : Advanced Video Codec
    Format profile              : High@L4.1
    Format settings             : CABAC / 12 Ref Frames
    Format settings, CABAC      : Yes
    Format settings, ReFrames   : 12 frames
    Codec ID                    : V_MPEG4/ISO/AVC
    Duration                    : 2 h 7 min
    Bit rate                    : 2 320 kb/s
    Width                       : 1 024 pixels
    Height                      : 576 pixels
    Display aspect ratio        : 16:9
    Frame rate mode             : Constant
    Frame rate                  : 23.976 (24000/1001) FPS
    Color space                 : YUV
    Chroma subsampling          : 4:2:0
    Bit depth                   : 8 bits
    Scan type                   : Progressive
    Bits/(Pixel*Frame)          : 0.164
    Stream size                 : 2.07 GiB (77%)
    Title                       : RIP_BY_-=DoMiNo=-
    Writing library             : x264 core 157 r2935M 545de2f
    Encoding settings           : cabac=1 / ref=12 / deblock=1:-2:-2 / analyse=0x3:0x133 / me=umh / subme=11 / psy=1 / psy_rd=1.00:0.10 / mixed_ref=1 / me_range=32 / chroma_me=1 / trellis=2 / 8x8dct=1 / cqm=0 / deadzone=21,11 / fast_pskip=0 / chroma_qp_offset=-3 / threads=6 / lookahead_threads=1 / sliced_threads=0 / nr=0 / decimate=1 / interlaced=0 / bluray_compat=0 / constrained_intra=0 / bframes=12 / b_pyramid=2 / b_adapt=2 / b_bias=0 / direct=1 / weightb=1 / open_gop=0 / weightp=2 / keyint=250 / keyint_min=24 / scenecut=40 / intra_refresh=0 / rc=crf / mbtree=0 / crf=18.0 / qcomp=0.60 / qpmin=16 / qpmax=69 / qpstep=4 / ip_ratio=1.40 / pb_ratio=1.30 / aq=1:0.80
    Language                    : English
    Default                     : Yes
    Forced                      : No
    Color range                 : Limited
    Color primaries             : BT.709
    Transfer characteristics    : BT.709
    Matrix coefficients         : BT.709

    Audio
    ID                          : 2
    Format                      : AC-3
    Format/Info                 : Audio Coding 3
    Commercial name             : Dolby Digital
    Codec ID                    : A_AC3
    Duration                    : 2 h 7 min
    Bit rate mode               : Constant
    Bit rate                    : 640 kb/s
    Channel(s)                  : 6 channels
    Channel layout              : L R C LFE Ls Rs
    Sampling rate               : 48.0 kHz
    Frame rate                  : 31.250 FPS (1536 SPF)
    Bit depth                   : 16 bits
    Compression mode            : Lossy
    Stream size                 : 585 MiB (21%)
    Title                       : Dub
    Language                    : Russian
    Service kind                : Complete Main
    Default                     : Yes
    Forced                      : No

    Text #1
    ID                          : 3
    Format                      : UTF-8
    Codec ID                    : S_TEXT/UTF8
    Codec ID/Info               : UTF-8 Plain Text
    Title                       : Forced
    Language                    : Russian
    Default                     : Yes
    Forced                      : No

    Text #2
    ID                          : 4
    Format                      : UTF-8
    Codec ID                    : S_TEXT/UTF8
    Codec ID/Info               : UTF-8 Plain Text
    Language                    : Russian
    Default                     : No
    Forced                      : No

    Text #3
    ID                          : 5
    Format                      : UTF-8
    Codec ID                    : S_TEXT/UTF8
    Codec ID/Info               : UTF-8 Plain Text
    Title                       : Voronine
    Language                    : Russian
    Default                     : No
    Forced                      : No

    Text #4
    ID                          : 6
    Format                      : UTF-8
    Codec ID                    : S_TEXT/UTF8
    Codec ID/Info               : UTF-8 Plain Text
    Title                       : SDH Voronine
    Language                    : Russian
    Default                     : No
    Forced                      : No

    Text #5
    ID                          : 7
    Format                      : UTF-8
    Codec ID                    : S_TEXT/UTF8
    Codec ID/Info               : UTF-8 Plain Text
    Language                    : English
    Default                     : No
    Forced                      : No

    Text #6
    ID                          : 8
    Format                      : UTF-8
    Codec ID                    : S_TEXT/UTF8
    Codec ID/Info               : UTF-8 Plain Text
    Title                       : SDH
    Language                    : English
    Default                     : No
    Forced                      : No

    Menu
    00:00:00.000                : :00:00:00.000
    00:13:01.447                : :00:13:01.447
    00:20:36.277                : :00:20:36.277
    00:29:30.394                : :00:29:30.394
    00:38:44.656                : :00:38:44.656
    00:49:33.679                : :00:49:33.679
    01:00:05.435                : :01:00:05.435
    01:13:39.707                : :01:13:39.707
    01:25:57.069                : :01:25:57.069
    01:39:15.658                : :01:39:15.658
    01:54:31.156                : :01:54:31.156
    02:01:40.251                : :02:01:40.251Свернуть


    Похожие раздачи Искать похожие
    Инструкция по скачиванию
     1  Качаем uTorrent версии 2.0 и выше
     2  После установки, жмем выше под постером на ссылку Скачать [MediaGet] или Скачать .torrent
     3  Открываем скачанный файл через соответствующий клиент: MediaGet или uTorrent
     4  Ждем пока подключатся участники
     5  Качаем
    Комментарии о  Расплата / The Accountant | WEB-DLRip-AVC 
    Ближайшее в кино
    Вверх