• Игры для PS4
  • Игры для PS3
  • Игры для XBOX360
  • Игры для PC
  • Игры для PS2
  • Игры для PSP
  • Для телефонов
  • Музыка
  • Книги / Журналы
  • Обои
  • Опрос
    Откуда Вы о нас узнали?
      0
    • От знакомых2,1,false,300,full
    • Из социальных сетей2,2,false,300,full
    • Из поисковых систем2,3,false,300,full
    • Другое2,4,false,300,full
    Статистика
    Всего онлайн -
    Гостей -
    Пользователей -
    Короли трекера
    
    Благодарности () Закрыть
    Информация о фильме
    Название: Трудный ребенок 2
    Оригинальное название: Problem Child 2
    Год выпуска: 1991
    Жанр:  комедия, семейный
    Режиссер: Брайан Левант
    В ролях: Джон Риттер (Ben Healy), Майкл Оливер (Junior Healy), Джек Уорден («Big» Ben Healy), Лорейн Ньюмен (Lawanda Dumore), Эми Ясбек (Annie Young), Ивианн Шван (Trixie Young), Гилберт Готтфрид (Mr. Peabody), Пол Вилсон (Smith), Алан Блюменфилд (Aron Burger), Шарлин Тилтон (Debbie Claukinski), Джеймс Толкан (Mr. Thorn), Марта Куинн (Emily)

    О фильме: Озорник Джуниор Хили — невозможный ребенок, но приемный отец терпит его выходки и старается сдержать свой гнев, ведь Джуниор — всего лишь маленький мальчик, хотя и трудный. Ситуация в семье изменилась с момента первой части фильма. Папа Хили развелся со своей женой и переехал вместе с сыном в квартал, где живут в основном разведенные женщины.

    Сразу же папа Хили становится объектом пристального внимания этих «хищниц». Вскоре Хили-старший связывает себя обязательствами по отношению к женщине, которая ненавидит Хили-младшего. В ответ Джуниор приводит в дом свою маленькую подружку — трудного ребенка N2…



    MPAA: PG-13 - Детям до 13 лет просмотр не желателен

    Страна: США
    Студия: Imagine Entertainment, Universal Pictures
    Продолжительность: 01:30:40
    Перевод: Профессиональный (многоголосый, закадровый), Профессиональный (двухголосый, закадровый), Авторский (одноголосый, закадровый), Любительский (одноголосый, закадровый)

    Файл
    Качество: BDRip 720p
    Формат: Matroska
    Видео: 1280x694 at 23.976 fps, х264, ~6400 kbps avg
    Аудио#1: Russian: 48 kHz, AC3, 2/0 (L,R) ch, ~192 kbps avg |Многоголосый закадровый, Пифагор|
    Аудио#2: Russian: 48 kHz, AC3, 2/0 (L,R) ch, ~192 kbps avg |Двухголосый закадровый, HTB|
    Аудио#3: Russian: 48 kHz, AC3, 2/0 (L,R) ch, ~192 kbps avg |Многоголосый закадровый, CTC|
    Аудио#4: Russian: 48 kHz, AC3, 2/0 (L,R) ch, ~192 kbps avg |Авторский, Леша-Прапорщик|
    Аудио#5: Russian: 48 kHz, AC3, 2/0 (L,R) ch, ~160 kbps avg |Авторский, А.Михалёв|
    Аудио#6: Russian: 48 kHz, AC3, 2/0 (L,R) ch, ~192 kbps avg |Авторский, Ю.Немахов|
    Аудио#7: Russian: 48 kHz, AC3, 2/0 (L,R) ch, ~192 kbps avg |Любительский, ?|
    Аудио#8: Russian: 48 kHz, AC3, 2/0 (L,R) ch, ~192 kbps avg |Любительский, ?|
    Аудио#9: English: 48 kHz, AC3, 2/0 (L,R) ch, ~192 kbps avg
    Субтитры: Russian, English

    ***Сохранены оригинальные главы как на Blu-ray.
    ***Релиз: msltel.

    Знаете ли вы, что...
    В эпизоде где Бен Хили едет в машине и ругает Джуниора за его проказы, виден номерной знак с надписью «JNRS DAD», что означает «Junior`s dad» - «отец Джуниора».Свернуть


    MediaInfo
    Общее
    Уникальный идентификатор                 : 182377903267236379848599668032437978239 (0x8934B4DDD1B96A808653F0E92EBF847F)
    Полное имя                               : Трудный ребёнок 2.1991.BDRip 720p by msltel.mkv
    Формат                                   : Matroska
    Версия формата                           : Version 4 / Version 2
    Размер файла                             : 5,26 Гбайт
    Продолжительность                        : 1 ч. 30 м.
    Общий поток                              : 8310 Кбит/сек
    Название фильма                          : Rip by msltel
    Дата кодирования                         : UTC 2019-01-08 11:04:38
    Программа кодирования                    : mkvmerge v8.2.0 ("World of Adventure") 64bit
    Библиотека кодирования                   : libebml v1.3.1 + libmatroska v1.4.2

    Видео
    Идентификатор                            : 1
    Формат                                   : AVC
    Формат/Информация                        : Advanced Video Codec
    Профиль формата                          : High@L4.1
    Параметр CABAC формата                   : Да
    Параметр ReFrames формата                : 9 кадров
    Идентификатор кодека                     : V_MPEG4/ISO/AVC
    Продолжительность                        : 1 ч. 30 м.
    Битрейт                                  : 6417 Кбит/сек
    Ширина                                   : 1280 пикселей
    Высота                                   : 694 пикселя
    Соотношение сторон                       : 1,85:1
    Режим частоты кадров                     : Постоянный
    Частота кадров                           : 23,976 кадра/сек
    Цветовое пространство                    : YUV
    Субдискретизация насыщенности            : 4:2:0
    Битовая глубина                          : 8 бит
    Тип развёртки                            : Прогрессивная
    Бит/(Пиксели*Кадры)                      : 0.301
    Размер потока                            : 4,06 Гбайт (77%)
    Библиотека кодирования                   : x264 core 157 r2935 545de2f
    Настройки программы                      : cabac=1 / ref=9 / deblock=1:-2:-2 / analyse=0x3:0x113 / me=umh / subme=11 / psy=1 / psy_rd=1.00:0.15 / mixed_ref=1 / me_range=32 / chroma_me=1 / trellis=2 / 8x8dct=1 / cqm=0 / deadzone=21,11 / fast_pskip=0 / chroma_qp_offset=-3 / threads=6 / lookahead_threads=1 / sliced_threads=0 / nr=0 / decimate=1 / interlaced=0 / bluray_compat=0 / constrained_intra=0 / bframes=16 / b_pyramid=2 / b_adapt=2 / b_bias=0 / direct=1 / weightb=1 / open_gop=0 / weightp=2 / keyint=230 / keyint_min=23 / scenecut=40 / intra_refresh=0 / rc_lookahead=40 / rc=crf / mbtree=0 / crf=20.0 / qcomp=0.60 / qpmin=0 / qpmax=69 / qpstep=4 / vbv_maxrate=62500 / vbv_bufsize=78125 / crf_max=0.0 / nal_hrd=none / filler=0 / ip_ratio=1.40 / pb_ratio=1.30 / aq=1:1.00
    Язык                                     : English
    Default                                  : Да
    Forced                                   : Нет

    Аудио #1
    Идентификатор                            : 2
    Формат                                   : AC-3
    Формат/Информация                        : Audio Coding 3
    Расширение режима                        : CM (complete main)
    Параметр Endianness формата              : Big
    Идентификатор кодека                     : A_AC3
    Продолжительность                        : 1 ч. 30 м.
    Вид битрейта                             : Постоянный
    Битрейт                                  : 192 Кбит/сек
    Каналы                                   : 2 канала
    Расположение каналов                     : Front: L R
    Частота                                  : 48,0 КГц
    Битовая глубина                          : 16 бит
    Метод сжатия                             : С потерями
    Размер потока                            : 125 Мбайт (2%)
    Заголовок                                : MVO Пифагор
    Язык                                     : Russian
    Default                                  : Да
    Forced                                   : Нет

    Аудио #2
    Идентификатор                            : 3
    Формат                                   : AC-3
    Формат/Информация                        : Audio Coding 3
    Расширение режима                        : CM (complete main)
    Параметр Endianness формата              : Big
    Идентификатор кодека                     : A_AC3
    Продолжительность                        : 1 ч. 30 м.
    Вид битрейта                             : Постоянный
    Битрейт                                  : 192 Кбит/сек
    Каналы                                   : 2 канала
    Расположение каналов                     : Front: L R
    Частота                                  : 48,0 КГц
    Битовая глубина                          : 16 бит
    Метод сжатия                             : С потерями
    Размер потока                            : 125 Мбайт (2%)
    Заголовок                                : MVO HTB
    Язык                                     : Russian
    Default                                  : Нет
    Forced                                   : Нет

    Аудио #3
    Идентификатор                            : 4
    Формат                                   : AC-3
    Формат/Информация                        : Audio Coding 3
    Расширение режима                        : CM (complete main)
    Параметр Endianness формата              : Big
    Идентификатор кодека                     : A_AC3
    Продолжительность                        : 1 ч. 30 м.
    Вид битрейта                             : Постоянный
    Битрейт                                  : 192 Кбит/сек
    Каналы                                   : 2 канала
    Расположение каналов                     : Front: L R
    Частота                                  : 48,0 КГц
    Битовая глубина                          : 16 бит
    Метод сжатия                             : С потерями
    Размер потока                            : 125 Мбайт (2%)
    Заголовок                                : MVO CTC
    Язык                                     : Russian
    Default                                  : Нет
    Forced                                   : Нет

    Аудио #4
    Идентификатор                            : 5
    Формат                                   : AC-3
    Формат/Информация                        : Audio Coding 3
    Расширение режима                        : CM (complete main)
    Параметр Endianness формата              : Big
    Идентификатор кодека                     : A_AC3
    Продолжительность                        : 1 ч. 30 м.
    Вид битрейта                             : Постоянный
    Битрейт                                  : 192 Кбит/сек
    Каналы                                   : 2 канала
    Расположение каналов                     : Front: L R
    Частота                                  : 48,0 КГц
    Битовая глубина                          : 16 бит
    Метод сжатия                             : С потерями
    Размер потока                            : 125 Мбайт (2%)
    Заголовок                                : Леша-Прапорщик
    Язык                                     : Russian
    Default                                  : Нет
    Forced                                   : Нет

    Аудио #5
    Идентификатор                            : 6
    Формат                                   : AC-3
    Формат/Информация                        : Audio Coding 3
    Расширение режима                        : CM (complete main)
    Параметр Endianness формата              : Big
    Идентификатор кодека                     : A_AC3
    Продолжительность                        : 1 ч. 30 м.
    Вид битрейта                             : Постоянный
    Битрейт                                  : 192 Кбит/сек
    Каналы                                   : 2 канала
    Расположение каналов                     : Front: L R
    Частота                                  : 48,0 КГц
    Битовая глубина                          : 16 бит
    Метод сжатия                             : С потерями
    Размер потока                            : 125 Мбайт (2%)
    Заголовок                                : Алексей Михалёв
    Язык                                     : Russian
    Default                                  : Нет
    Forced                                   : Нет

    Аудио #6
    Идентификатор                            : 7
    Формат                                   : AC-3
    Формат/Информация                        : Audio Coding 3
    Расширение режима                        : CM (complete main)
    Параметр Endianness формата              : Big
    Идентификатор кодека                     : A_AC3
    Продолжительность                        : 1 ч. 30 м.
    Вид битрейта                             : Постоянный
    Битрейт                                  : 192 Кбит/сек
    Каналы                                   : 2 канала
    Расположение каналов                     : Front: L R
    Частота                                  : 48,0 КГц
    Битовая глубина                          : 16 бит
    Метод сжатия                             : С потерями
    Размер потока                            : 125 Мбайт (2%)
    Заголовок                                : Юрий Немахов
    Язык                                     : Russian
    Default                                  : Нет
    Forced                                   : Нет

    Аудио #7
    Идентификатор                            : 8
    Формат                                   : AC-3
    Формат/Информация                        : Audio Coding 3
    Расширение режима                        : CM (complete main)
    Параметр Endianness формата              : Big
    Идентификатор кодека                     : A_AC3
    Продолжительность                        : 1 ч. 30 м.
    Вид битрейта                             : Постоянный
    Битрейт                                  : 192 Кбит/сек
    Каналы                                   : 2 канала
    Расположение каналов                     : Front: L R
    Частота                                  : 48,0 КГц
    Битовая глубина                          : 16 бит
    Метод сжатия                             : С потерями
    Размер потока                            : 125 Мбайт (2%)
    Заголовок                                : VO
    Язык                                     : Russian
    Default                                  : Нет
    Forced                                   : Нет

    Аудио #8
    Идентификатор                            : 9
    Формат                                   : AC-3
    Формат/Информация                        : Audio Coding 3
    Расширение режима                        : CM (complete main)
    Параметр Endianness формата              : Big
    Идентификатор кодека                     : A_AC3
    Продолжительность                        : 1 ч. 30 м.
    Вид битрейта                             : Постоянный
    Битрейт                                  : 192 Кбит/сек
    Каналы                                   : 2 канала
    Расположение каналов                     : Front: L R
    Частота                                  : 48,0 КГц
    Битовая глубина                          : 16 бит
    Метод сжатия                             : С потерями
    Размер потока                            : 125 Мбайт (2%)
    Заголовок                                : VO
    Язык                                     : Russian
    Default                                  : Нет
    Forced                                   : Нет

    Аудио #9
    Идентификатор                            : 10
    Формат                                   : AC-3
    Формат/Информация                        : Audio Coding 3
    Расширение режима                        : CM (complete main)
    Параметр Endianness формата              : Big
    Идентификатор кодека                     : A_AC3
    Продолжительность                        : 1 ч. 30 м.
    Вид битрейта                             : Постоянный
    Битрейт                                  : 192 Кбит/сек
    Каналы                                   : 2 канала
    Расположение каналов                     : Front: L R
    Частота                                  : 48,0 КГц
    Битовая глубина                          : 16 бит
    Метод сжатия                             : С потерями
    Размер потока                            : 125 Мбайт (2%)
    Заголовок                                : original
    Язык                                     : English
    Default                                  : Нет
    Forced                                   : Нет

    Текст #1
    Идентификатор                            : 11
    Формат                                   : PGS
    Режим смешивания                         : zlib
    Идентификатор кодека                     : S_HDMV/PGS
    Идентификатор кодека/Информация          : The same subtitle format used on BDs/HD-DVDs
    Заголовок                                : русские (sup)
    Язык                                     : Russian
    Default                                  : Нет
    Forced                                   : Нет

    Текст #2
    Идентификатор                            : 12
    Формат                                   : UTF-8
    Идентификатор кодека                     : S_TEXT/UTF8
    Идентификатор кодека/Информация          : UTF-8 Plain Text
    Заголовок                                : русские (srt)
    Язык                                     : Russian
    Default                                  : Нет
    Forced                                   : Нет

    Текст #3
    Идентификатор                            : 13
    Формат                                   : UTF-8
    Идентификатор кодека                     : S_TEXT/UTF8
    Идентификатор кодека/Информация          : UTF-8 Plain Text
    Заголовок                                : английские
    Язык                                     : English
    Default                                  : Нет
    Forced                                   : Нет

    Меню
    00:00:00.000                             : :Chapter 1
    00:08:37.099                             : :Chapter 2
    00:15:27.760                             : :Chapter 3
    00:22:09.036                             : :Chapter 4
    00:30:04.761                             : :Chapter 5
    00:37:24.824                             : :Chapter 6
    00:44:35.381                             : :Chapter 7
    00:53:18.695                             : :Chapter 8
    00:59:16.761                             : :Chapter 9
    01:07:50.941                             : :Chapter 10
    01:14:26.003                             : :Chapter 11
    01:20:51.095                             : :Chapter 12
    01:30:40.435                             : :Chapter 13Свернуть


    Скриншоты
    [screen]http://img15.lostpic.net/2019/01/08/29fc63ea2c4e7ae534ac80d7bb248376.png[/screen][screen]http://img15.lostpic.net/2019/01/08/0f434381ac4cd320f187cd4ba4c0c18e.png[/screen][screen]http://img15.lostpic.net/2019/01/08/7d8237d7db78800619b30836b71a34c4.png[/screen][screen]http://img15.lostpic.net/2019/01/08/e354c2ff192da2258972f31039387dc2.png[/screen]Свернуть
    Похожие раздачи Искать похожие
    Инструкция по скачиванию
     1  Качаем uTorrent версии 2.0 и выше
     2  После установки, жмем выше под постером на ссылку Скачать [MediaGet] или Скачать .torrent
     3  Открываем скачанный файл через соответствующий клиент: MediaGet или uTorrent
     4  Ждем пока подключатся участники
     5  Качаем
    Комментарии о  Трудный ребенок 2 / Problem Child 2 | BDRip 720p 
    Ближайшее в кино
    Вверх