• Игры для PS4
  • Игры для PS3
  • Игры для XBOX360
  • Игры для PC
  • Игры для PS2
  • Игры для PSP
  • Для телефонов
  • Музыка
  • Книги / Журналы
  • Обои
  • Опрос
    Откуда Вы о нас узнали?
      0
    • От знакомых2,1,false,300,full
    • Из социальных сетей2,2,false,300,full
    • Из поисковых систем2,3,false,300,full
    • Другое2,4,false,300,full
    Статистика
    Всего онлайн -
    Гостей -
    Пользователей -
    Короли трекера
    
    Благодарности () Закрыть
    Информация о фильме
    Название: Король вне закона
    Оригинальное название: Outlaw King
    Год выпуска: 2018
    Жанр:  боевик, драма, биография, история
    Режиссер: Дэвид Маккензи
    В ролях: Крис Пайн, Аарон Тейлор-Джонсон, Стивен Диллэйн, Ребекка Робин, Билли Хоул, Пол Блэр, Сэм Спруэлл, Джонатан Филлипс, Бен Клиффорд, Джэми МакЛахлан, Данкан Лакруа, Тони Кёрран, Джеймс Космо, Клайв Расселл.

    О фильме:
    История Роберта Брюса, одного из величайших шотландских монархов, организатора обороны страны в начальный период войны за независимость против Англии.



    Страна: Великобритания, США
    Студия: Sigma Films, Anonymous Content, Clockwork Sessions
    Продолжительность: 02:01:38
    Перевод:
    » Профессиональный (дублированный) [Невафильм]
    » Профессиональный (многоголосый, закадровый) [NewStudio]

    Файл
    Качество: WEBRip 1080p
    Формат: Matroska
    Видео: 1920x802 at 24.000 fps, MPEG-4 AVC, ~14400 kbps avg
    Аудио#1: Русский (E-AC3, 6 ch, 640 Кбит/с) | Невафильм
    Аудио#2: Русский (AC3, 6 ch, 384 Кбит/с) | NewStudio
    Аудио#3: Английский (E-AC3, 6 ch, 448 Кбит/с)
    Субтитры: Russian (Forced, Full), English (Full,SDH)

    Примечание: Релиз без рекламы от Wanterlude
    Спасибо за дорожку Невафильм Wilmots@EniaHD
    Релиз
    -----------------------
    Outlaw King
    -----------------------
    »» Основная информация:
    Видеоряд: Outlaw.King.2018.1080p.WEBRip.X264-DEFLATE
    Субтитры: Русские (Forced, Full), английские (Full, SDH)

    »» Аудиодорожки:
    » Невафильм | Дублированный | E-AC3, 6 ch, 640 Кбит/с |
    » NewStudio | Многоголосый (закадровый) | AC3, 6 ch, 384 Кбит/с |
    » Оригинальная дорожка | E-AC3, 6 ch, 448 Кбит/с |

    »» Дополнительная информация:
    ▪ Субтитры от Netflix
    Скачать Сэмпл

    » Спасибо за дорожку Невафильм: Wilmots@EniaHD
    » Сборкой и очисткой от рекламы (NewStudio) занимался: Wanterlude

    Если вы взяли дорожку или сам релиз, будьте добры указать автора :)

    Свернуть


    MediaInfo
    General
    Unique ID                                : 206021538068837837227137984343764107667 (0x9AFE4E10419231478B89EB5F666C0193)
    Complete name                            : D:Outlaw.King.2018.1080p.Wanterlude.mkv
    Format                                   : Matroska
    Format version                           : Version 4
    File size                                : 13.4 GiB
    Duration                                 : 2 h 1 min
    Overall bit rate                         : 15.8 Mb/s
    Movie name                               : Король вне закона | Outlaw King | by Wanterlude
    Encoded date                             : UTC 2019-01-08 08:42:32
    Writing application                      : mkvmerge v30.1.0 ("Forever And More") 64-bit
    Writing library                          : libebml v1.3.6 + libmatroska v1.4.9

    Video
    ID                                       : 1
    Format                                   : AVC
    Format/Info                              : Advanced Video Codec
    Format profile                           : High@L4.1
    Format settings                          : CABAC / 5 Ref Frames
    Format settings, CABAC                   : Yes
    Format settings, RefFrames               : 5 frames
    Codec ID                                 : V_MPEG4/ISO/AVC
    Duration                                 : 2 h 1 min
    Bit rate                                 : 14.4 Mb/s
    Width                                    : 1 920 pixels
    Height                                   : 802 pixels
    Display aspect ratio                     : 2.40:1
    Frame rate mode                          : Constant
    Frame rate                               : 24.000 FPS
    Color space                              : YUV
    Chroma subsampling                       : 4:2:0
    Bit depth                                : 8 bits
    Scan type                                : Progressive
    Bits/(Pixel*Frame)                       : 0.390
    Stream size                              : 12.2 GiB (91%)
    Title                                    : Король вне закона | Outlaw King | by Wanterlude
    Writing library                          : x264 core 157 r2932+2 (master: 303c484 / tmod: 1b88d0a) [X86_64]
    Encoding settings                        : cabac=1 / ref=5 / deblock=1:-3:-3 / analyse=0x3:0x133 / me=umh / subme=11 / psy=1 / psy_rd=1.05:0.15 / mixed_ref=1 / me_range=48 / chroma_me=1 / trellis=2 / 8x8dct=1 / cqm=0 / deadzone=6,6 / fast_pskip=0 / chroma_qp_offset=-3 / threads=25 / lookahead_threads=6 / sliced_threads=0 / nr=0 / decimate=0 / interlaced=0 / bluray_compat=0 / constrained_intra=0 / bframes=10 / b_pyramid=2 / b_adapt=2 / b_bias=0 / direct=3 / weightb=1 / open_gop=0 / weightp=2 / keyint=250 / keyint_min=24 / scenecut=40 / intra_refresh=0 / rc_lookahead=60 / rc=crf / mbtree=0 / crf=17.5 / qcomp=0.70 / qpmin=0 / qpmax=69 / qpstep=4 / vbv_maxrate=62500 / vbv_bufsize=78125 / crf_max=0.0 / nal_hrd=none / filler=0 / ip_ratio=1.25 / pb_ratio=1.20 / aq=3:0.75
    Language                                 : English
    Default                                  : Yes
    Forced                                   : No

    Audio #1
    ID                                       : 2
    Format                                   : E-AC-3
    Format/Info                              : Enhanced AC-3
    Commercial name                          : Dolby Digital Plus
    Codec ID                                 : A_EAC3
    Duration                                 : 2 h 1 min
    Bit rate mode                            : Constant
    Bit rate                                 : 640 kb/s
    Channel(s)                               : 6 channels
    Channel layout                           : L R C LFE Ls Rs
    Sampling rate                            : 48.0 kHz
    Frame rate                               : 31.250 FPS (1536 SPF)
    Compression mode                         : Lossy
    Stream size                              : 557 MiB (4%)
    Title                                    : Невафильм | Дублированный
    Language                                 : Russian
    Service kind                             : Complete Main
    Default                                  : Yes
    Forced                                   : No

    Audio #2
    ID                                       : 3
    Format                                   : AC-3
    Format/Info                              : Audio Coding 3
    Commercial name                          : Dolby Digital
    Codec ID                                 : A_AC3
    Duration                                 : 2 h 1 min
    Bit rate mode                            : Constant
    Bit rate                                 : 384 kb/s
    Channel(s)                               : 6 channels
    Channel layout                           : L R C LFE Ls Rs
    Sampling rate                            : 48.0 kHz
    Frame rate                               : 31.250 FPS (1536 SPF)
    Bit depth                                : 16 bits
    Compression mode                         : Lossy
    Stream size                              : 334 MiB (2%)
    Title                                    : NewStudio | Многоголосый (закадровый)
    Language                                 : Russian
    Service kind                             : Complete Main
    Default                                  : No
    Forced                                   : No

    Audio #3
    ID                                       : 4
    Format                                   : E-AC-3 JOC
    Format/Info                              : Enhanced AC-3 with Joint Object Coding
    Commercial name                          : Dolby Digital Plus with Dolby Atmos
    Codec ID                                 : A_EAC3
    Duration                                 : 2 h 1 min
    Bit rate mode                            : Constant
    Bit rate                                 : 448 kb/s
    Channel(s)                               : 6 channels
    Channel layout                           : L R C LFE Ls Rs
    Sampling rate                            : 48.0 kHz
    Frame rate                               : 31.250 FPS (1536 SPF)
    Compression mode                         : Lossy
    Stream size                              : 388 MiB (3%)
    Title                                    : Оригинальная дорожка
    Language                                 : English
    Service kind                             : Complete Main
    Default                                  : No
    Forced                                   : No
    Complexity index                         : 16
    Number of dynamic objects                : 15
    Bed channel count                        : 1 channel
    Bed channel configuration                : LFE

    Text #1
    ID                                       : 5
    Format                                   : UTF-8
    Codec ID                                 : S_TEXT/UTF8
    Codec ID/Info                            : UTF-8 Plain Text
    Duration                                 : 2 h 0 min
    Bit rate                                 : 3 b/s
    Count of elements                        : 43
    Stream size                              : 2.84 KiB (0%)
    Title                                    : Russian (Forced)
    Language                                 : Russian
    Default                                  : Yes
    Forced                                   : Yes

    Text #2
    ID                                       : 6
    Format                                   : UTF-8
    Codec ID                                 : S_TEXT/UTF8
    Codec ID/Info                            : UTF-8 Plain Text
    Duration                                 : 2 h 0 min
    Bit rate                                 : 63 b/s
    Count of elements                        : 1198
    Stream size                              : 56.1 KiB (0%)
    Title                                    : Russian (Full)
    Language                                 : Russian
    Default                                  : No
    Forced                                   : No

    Text #3
    ID                                       : 7
    Format                                   : UTF-8
    Codec ID                                 : S_TEXT/UTF8
    Codec ID/Info                            : UTF-8 Plain Text
    Duration                                 : 1 h 51 min
    Bit rate                                 : 39 b/s
    Count of elements                        : 1144
    Stream size                              : 32.2 KiB (0%)
    Title                                    : English (Full)
    Language                                 : English
    Default                                  : No
    Forced                                   : No

    Text #4
    ID                                       : 8
    Format                                   : UTF-8
    Codec ID                                 : S_TEXT/UTF8
    Codec ID/Info                            : UTF-8 Plain Text
    Duration                                 : 1 h 59 min
    Bit rate                                 : 47 b/s
    Count of elements                        : 1387
    Stream size                              : 41.6 KiB (0%)
    Title                                    : English (SDH)
    Language                                 : English
    Default                                  : No
    Forced                                   : No

    Свернуть


    Похожие раздачи Искать похожие
    Инструкция по скачиванию
     1  Качаем uTorrent версии 2.0 и выше
     2  После установки, жмем выше под постером на ссылку Скачать [MediaGet] или Скачать .torrent
     3  Открываем скачанный файл через соответствующий клиент: MediaGet или uTorrent
     4  Ждем пока подключатся участники
     5  Качаем
    Комментарии о  Король вне закона / Outlaw King | WEBRip 1080p 
    Ближайшее в кино
    Вверх