• Игры для PS4
  • Игры для PS3
  • Игры для XBOX360
  • Игры для PC
  • Игры для PS2
  • Игры для PSP
  • Для телефонов
  • Музыка
  • Книги / Журналы
  • Обои
  • Опрос
    Удобен ли сайт в использовании?
      0
    • Очень удобен, все понятно1,1,false,300,full
    • Удобен1,2,false,300,full
    • Средне1,3,false,300,full
    • Неудобен, трудно ориентироваться1,4,false,300,full
    • Совсем неудобен1,5,false,300,full
    Статистика
    Всего онлайн -
    Гостей -
    Пользователей -
    Короли трекера
    
    Благодарности () Закрыть
    Год выпуска: 1974
    Страна: США
    Жанр:  драма, комедия, криминал, приключения
    Продолжительность: 01:49:52
    Перевод: профессиональный многоголосый
    Субтитры: русские, английские (для слабослышащих)

    Режиссёр: Стивен Спилберг

    В ролях: Голди Хоун, Бен Джонсон, Майкл Сакс, Уильям Этертон, Грегори Уэлкотт, Стив Кэнэли, Луиз Лэтэм, Харрисон Занук, А.Л. Кэмп, Джесси Ли Фултон, Дин Смит, Тед Гроссман, Билл Турман, Кеннет Хаджинс, Бастер Дэниелс, Джеймс Н. Харрелл, Гуч Кук, Джин Рейдер, Руди Роббинс, Ричард Брайт

    Описание: Молодая супружеская пара с криминальным прошлым переживает более серьёзную, чем тюремное заключение, трагедию: по приговору суда их маленький ребёнок должен быть отдан в чужую семью. И тогда жена уговаривает на побег из тюрьмы мужа. Они вдвоём угоняют полицейскую машину, взяв в заложники блюстителя закона, после чего отправляются в путь по дорогам Техаса, сопровождаемые караваном полицейских автомобилей. Они мчатся, не зная, что ждёт их впереди...Фильм основан на подлинных событиях, случившихся в Техасе в 1969 году.



    Качество: BDRip 720p Сравнение с исходником
    Формат: MKV
    Видео кодек: H.264
    Аудио кодек: AC3
    Видео:  1280x544, 5870 kbps, 23.976 кадра/с, 0.352 bpp
    Аудио 1: русский, AC3, 192 kbps, 2 ch, 48 kHz [профессиональный многоголосый]
    Аудио 2: английский, AC3, 192 kbps, 2 ch, 48 kHz [оригинал]

    Имеются неименованные главы/чаптеры.

    Награды
    Каннский кинофестиваль, 1974 год
    Победитель (1):
    Лучший сценарий

    Номинации (1):
    Золотая пальмовая ветвьСвернуть


    MediaInfo
    Общее
    Уникальный идентификатор                 : 196403851608498129922076031217297629331 (0x93C20182B34B6ED29376E35641A5A093)
    Полное имя                               : D:VideoShugarlendskij express.1974.BDRip.720p.mkv
    Формат                                   : Matroska
    Версия формата                           : Version 4 / Version 2
    Размер файла                             : 4,90 Гбайт
    Продолжительность                        : 1 ч. 49 м.
    Общий поток                              : 6381 Кбит/сек
    Дата кодирования                         : UTC 2014-11-25 07:51:59
    Программа кодирования                    : mkvmerge v7.3.0 ("Nouages") 64bit built on Oct 22 2014 18:53:34
    Библиотека кодирования                   : libebml v1.3.0 + libmatroska v1.4.1
    DURATION                                 : 01:47:20.558000000
    NUMBER_OF_FRAMES                         : 1476
    NUMBER_OF_BYTES                          : 48499
    _STATISTICS_WRITING_APP                  : mkvmerge v7.3.0 ("Nouages") 64bit built on Oct 22 2014 18:53:34
    _STATISTICS_WRITING_DATE_UTC             : 2014-11-25 07:51:59
    _STATISTICS_TAGS                         : BPS DURATION NUMBER_OF_FRAMES NUMBER_OF_BYTES

    Видео
    Идентификатор                            : 1
    Формат                                   : AVC
    Формат/Информация                        : Advanced Video Codec
    Профиль формата                          : High@L4.1
    Параметр CABAC формата                   : Да
    Параметр ReFrames формата                : 9 кадров
    Идентификатор кодека                     : V_MPEG4/ISO/AVC
    Продолжительность                        : 1 ч. 49 м.
    Битрейт                                  : 5870 Кбит/сек
    Ширина                                   : 1280 пикселей
    Высота                                   : 544 пикселя
    Соотношение сторон                       : 2,35:1
    Режим частоты кадров                     : Постоянный
    Частота кадров                           : 23,976 кадра/сек
    Цветовое пространство                    : YUV
    Субдискретизация насыщенности            : 4:2:0
    Битовая глубина                          : 8 бит
    Тип развёртки                            : Прогрессивная
    Бит/(Пиксели*Кадры)                      : 0.352
    Размер потока                            : 4,50 Гбайт (92%)
    Заголовок                                : BDRip  --  STarankov
    Библиотека кодирования                   : x264 core 142 r2431 ac76440
    Настройки программы                      : cabac=1 / ref=9 / deblock=1:-1:-1 / analyse=0x3:0x113 / me=umh / subme=10 / psy=1 / psy_rd=1.00:0.15 / mixed_ref=1 / me_range=32 / chroma_me=1 / trellis=2 / 8x8dct=1 / cqm=0 / deadzone=21,11 / fast_pskip=1 / chroma_qp_offset=-3 / threads=6 / lookahead_threads=1 / sliced_threads=0 / nr=0 / decimate=1 / interlaced=0 / bluray_compat=0 / constrained_intra=0 / bframes=8 / b_pyramid=2 / b_adapt=2 / b_bias=0 / direct=3 / weightb=1 / open_gop=0 / weightp=2 / keyint=230 / keyint_min=23 / scenecut=40 / intra_refresh=0 / rc_lookahead=40 / rc=crf / mbtree=0 / crf=19.3 / qcomp=0.60 / qpmin=0 / qpmax=69 / qpstep=4 / vbv_maxrate=50000 / vbv_bufsize=62500 / crf_max=0.0 / nal_hrd=none / filler=0 / ip_ratio=1.40 / pb_ratio=1.30 / aq=1:1.00
    Язык                                     : English
    Default                                  : Да
    Forced                                   : Нет
    DURATION                                 : 01:49:52.419000000
    NUMBER_OF_FRAMES                         : 158060
    NUMBER_OF_BYTES                          : 4939754229
    _STATISTICS_WRITING_APP                  : mkvmerge v7.3.0 ("Nouages") 64bit built on Oct 22 2014 18:53:34
    _STATISTICS_WRITING_DATE_UTC             : 2014-11-25 07:51:59
    _STATISTICS_TAGS                         : BPS DURATION NUMBER_OF_FRAMES NUMBER_OF_BYTES

    Аудио #1
    Идентификатор                            : 2
    Формат                                   : AC-3
    Формат/Информация                        : Audio Coding 3
    Расширение режима                        : CM (complete main)
    Параметр Endianness формата              : Big
    Идентификатор кодека                     : A_AC3
    Продолжительность                        : 1 ч. 49 м.
    Вид битрейта                             : Постоянный
    Битрейт                                  : 192 Кбит/сек
    Каналы                                   : 2 канала
    Расположение каналов                     : Front: L R
    Частота                                  : 48,0 КГц
    Битовая глубина                          : 16 бит
    Метод сжатия                             : С потерями
    Размер потока                            : 151 Мбайт (3%)
    Заголовок                                : MVO
    Язык                                     : Russian
    Default                                  : Да
    Forced                                   : Нет

    Аудио #2
    Идентификатор                            : 3
    Формат                                   : AC-3
    Формат/Информация                        : Audio Coding 3
    Расширение режима                        : CM (complete main)
    Параметр Endianness формата              : Big
    Идентификатор кодека                     : A_AC3
    Продолжительность                        : 1 ч. 49 м.
    Вид битрейта                             : Постоянный
    Битрейт                                  : 192 Кбит/сек
    Каналы                                   : 2 канала
    Расположение каналов                     : Front: L R
    Частота                                  : 48,0 КГц
    Битовая глубина                          : 16 бит
    Метод сжатия                             : С потерями
    Размер потока                            : 151 Мбайт (3%)
    Заголовок                                : Original
    Язык                                     : English
    Default                                  : Нет
    Forced                                   : Нет

    Текст #1
    Идентификатор                            : 4
    Формат                                   : UTF-8
    Идентификатор кодека                     : S_TEXT/UTF8
    Идентификатор кодека/Информация          : UTF-8 Plain Text
    Заголовок                                : русский
    Язык                                     : Russian
    Default                                  : Нет
    Forced                                   : Нет

    Текст #2
    Идентификатор                            : 5
    Формат                                   : UTF-8
    Идентификатор кодека                     : S_TEXT/UTF8
    Идентификатор кодека/Информация          : UTF-8 Plain Text
    Заголовок                                : английский (для слабослышащих)
    Default                                  : Нет
    Forced                                   : Нет

    Меню
    00:00:00.000                             : :Chapter 01
    00:04:42.782                             : :Chapter 02
    00:11:51.419                             : :Chapter 03
    00:16:06.674                             : :Chapter 04
    00:22:45.614                             : :Chapter 05
    00:29:14.627                             : :Chapter 06
    00:36:26.475                             : :Chapter 07
    00:42:26.335                             : :Chapter 08
    00:47:49.658                             : :Chapter 09
    00:54:33.103                             : :Chapter 10
    01:00:29.000                             : :Chapter 11
    01:07:04.645                             : :Chapter 12
    01:15:25.395                             : :Chapter 13
    01:22:00.707                             : :Chapter 14
    01:27:29.619                             : :Chapter 15
    01:34:07.600                             : :Chapter 16
    01:39:14.990                             : :Chapter 17
    01:48:08.857                             : :Chapter 18
    01:49:52.168                             : :Chapter 19Свернуть


    Скриншоты (увеличить)
    [screen]http://i2.sendpic.org/i/aN/aNDhI4LjXq8GTCylQ7EXcLZkdAc.png[/screen][screen]http://i2.sendpic.org/i/lW/lW1q0TqK3rKqdsREMG7mIDEw0Tr.png[/screen][screen]http://i1.sendpic.org/i/kt/ktGYrF1zO2kRA1WLM7oDz9UT7gb.png[/screen][screen]http://i1.sendpic.org/i/v7/v7UVjQTkTBnryBJWPi6NFQZtlAs.png[/screen][screen]http://i1.sendpic.org/i/vy/vyNG6Qfnzc7C6g1lRve7EYOxmcX.png[/screen][screen]http://i2.sendpic.org/i/6H/6H68LYDi4Lb7OyI84mdmFtnLkz4.png[/screen][screen]http://i1.sendpic.org/i/uG/uGbvL9AZmA1z4Iw5cwbsRzsAoJ4.png[/screen][screen]http://i1.sendpic.org/i/zR/zRohr6SMrxnvO4vH9iLq5zdL7Kg.png[/screen]
    Свернуть
    Похожие раздачи Искать похожие
    Инструкция по скачиванию
     1  Качаем uTorrent версии 2.0 и выше
     2  После установки, жмем выше под постером на ссылку Скачать [MediaGet] или Скачать .torrent
     3  Открываем скачанный файл через соответствующий клиент: MediaGet или uTorrent
     4  Ждем пока подключатся участники
     5  Качаем
    Комментарии о  Шугарлендский экспресс / The Sugarland express | BDRip 720p 
    Ближайшее в кино
    Вверх