• Игры для PS4
  • Игры для PS3
  • Игры для XBOX360
  • Игры для PC
  • Игры для PS2
  • Игры для PSP
  • Для телефонов
  • Музыка
  • Книги / Журналы
  • Обои
  • Опрос
    Удобен ли сайт в использовании?
      0
    • Очень удобен, все понятно1,1,false,300,full
    • Удобен1,2,false,300,full
    • Средне1,3,false,300,full
    • Неудобен, трудно ориентироваться1,4,false,300,full
    • Совсем неудобен1,5,false,300,full
    Статистика
    Всего онлайн -
    Гостей -
    Пользователей -
    Короли трекера
    
    Благодарности () Закрыть
    Информация о фильме
    Название: Свидетели
    Год выхода: 2018
    Жанр:  Драма, история
    Режиссер: Константин Фам
    В ролях: Оксана Фандера, Филипп Янковский, Владимир Кошевой, Ленн Кудрявицки, Михаил Горевой, Маруся Зыкова, Анжелика Каширина, Вячеслав Чепурченко, Мария Кинг, Сергей Агафонов

    О фильме: В начале XX века в мастерской создается уникальная скрипка, предназначенная в подарок еврейскому мальчику. Инструмент попадает в эпицентр трагических событий, становясь их невольным свидетелем. Главный герой фильма до середины жизни был полностью уверен, что знает всё о своей семье, пока не получил полное драматизма и эмоций письмо из прошлого. Тот, кто был таким близким и родным, оказывается совсем другим человеком… Как теперь жить с этой болью? Как найти себя, и вернуться к истокам? Герою предстоит отыскать ответы на эти вопросы и обрести Любовь.



    Страна: Россия, Беларусь, Чехия, Франция, Польша, Израиль
    Выпущено: Ark Pictures, Russian Film Group
    Продолжительность: 01:47:26
    Перевод: Не требуется

    Файл
    Качество: WEB-DL 1080p
    Видео: MPEG-4 AVC, 1920x806, 24.000 fps, 4439 Кбит/с
    Аудио: AC3, 6 ch, 384 Кбит/сек
    Субтитры: Нет

    MediaInfo
    Общее
    Уникальный идентификатор                 : 179140392966312468275946765240099037677 (0x86C52F48E9B0701985B17E79B2B661ED)
    Полное имя                               : Свидетели.2018.WEB-DL.1080p.KORSAR.mkv
    Формат                                   : Matroska
    Версия формата                           : Version 2
    Размер файла                             : 3,69 Гбайт
    Продолжительность                        : 1 ч. 47 м.
    Общий поток                              : 4921 Кбит/сек
    Дата кодирования                         : UTC 2019-01-06 18:56:55
    Программа кодирования                    : mkvmerge v7.8.0 ("River Man") 32bit built on Mar 27 2015 16:18:02
    Библиотека кодирования                   : libebml v1.3.1 + libmatroska v1.4.2

    Видео
    Идентификатор                            : 1
    Формат                                   : AVC
    Формат/Информация                        : Advanced Video Codec
    Профиль формата                          : High@L4
    Параметр CABAC формата                   : Да
    Параметр RefFrames формата               : 5 кадров
    Идентификатор кодека                     : V_MPEG4/ISO/AVC
    Продолжительность                        : 1 ч. 47 м.
    Битрейт                                  : 4439 Кбит/сек
    Ширина                                   : 1920 пикселей
    Высота                                   : 806 пикселей
    Соотношение сторон                       : 2,40:1
    Режим частоты кадров                     : Постоянный
    Частота кадров                           : 24,000 кадра/сек
    Цветовое пространство                    : YUV
    Субдискретизация насыщенности            : 4:2:0
    Битовая глубина                          : 8 бит
    Тип развёртки                            : Прогрессивная
    Бит/(Пиксели*Кадры)                      : 0.120
    Размер потока                            : 3,33 Гбайт (90%)
    Заголовок                                : Свидетели.2018
    Язык                                     : Russian
    Default                                  : Да
    Forced                                   : Нет
    Цветовой диапазон                        : Limited
    Основные цвета                           : BT.709
    Характеристики трансфера                 : BT.709
    Коэффициенты матрицы                     : BT.709

    Аудио
    Идентификатор                            : 2
    Формат                                   : AC-3
    Формат/Информация                        : Audio Coding 3
    Параметр Endianness формата              : Big
    Идентификатор кодека                     : A_AC3
    Продолжительность                        : 1 ч. 47 м.
    Вид битрейта                             : Постоянный
    Битрейт                                  : 384 Кбит/сек
    Каналы                                   : 6 каналов
    Расположение каналов                     : Front: L C R, Side: L R, LFE
    Частота                                  : 48,0 КГц
    Частота кадров                           : 31,250 кадров/сек (1536 SPF)
    Битовая глубина                          : 16 бит
    Метод сжатия                             : С потерями
    Размер потока                            : 295 Мбайт (8%)
    Язык                                     : Russian
    Default                                  : Да
    Forced                                   : НетСвернуть
    Похожие раздачи Искать похожие
    Инструкция по скачиванию
     1  Качаем uTorrent версии 2.0 и выше
     2  После установки, жмем выше под постером на ссылку Скачать [MediaGet] или Скачать .torrent
     3  Открываем скачанный файл через соответствующий клиент: MediaGet или uTorrent
     4  Ждем пока подключатся участники
     5  Качаем
    Комментарии о  Свидетели | WEB-DL 1080p 
    Ближайшее в кино
    Вверх