• Игры для PS4
  • Игры для PS3
  • Игры для XBOX360
  • Игры для PC
  • Игры для PS2
  • Игры для PSP
  • Для телефонов
  • Музыка
  • Книги / Журналы
  • Обои
  • Опрос
    Удобен ли сайт в использовании?
      0
    • Очень удобен, все понятно1,1,false,300,full
    • Удобен1,2,false,300,full
    • Средне1,3,false,300,full
    • Неудобен, трудно ориентироваться1,4,false,300,full
    • Совсем неудобен1,5,false,300,full
    Статистика
    Всего онлайн -
    Гостей -
    Пользователей -
    Короли трекера
    
    Благодарности () Закрыть
    Информация о фильме
    Название: Старик с пистолетом
    Оригинальное название: The Old Man & the Gun

    Год выхода: 2018
    Жанр: Драма, комедия, криминал
    Режиссер: Дэвид Лоури
    В ролях: Роберт Редфорд, Сисси Спейсек, Кейси Аффлек, Дэнни Гловер, Том Уэйтс, Тика Самптер, Ари Элизабет Джонсон, Тиган Джонсон, Джин Джонс, Джон Дэвид Вашингтон, Элизабет Мосс
    О фильме:
    Правдивая история неисправимого вора Форреста Таккера, который большую часть жизни посвятил обчищению банков и побегу из тюрем. На закате своей беспокойной «карьеры» 78-летний Таккер снова берётся за любимое дело, невзирая на преследование молодого детектива и обязательства перед преданной женой.



    Страна: США
    Продолжительность: 01:33:43
    Перевод: Любительский (двухголосый закадровый) | HiWay Grope

    Файл
    Кодек: XviD
    Качество: WEBRip
    Видео: 720x304, 24 fps, ~1511 kbps, 0.29 bit/pixel
    Звук:
    Аудио rus: AC3, 48 kHz, 6 ch, 384 Kbps
    Субтитры: отсутствуют

    Реклама: присутствует

    Семпл

    MediaInfo

    General
    Complete name                            : D:The.Old.Man.and.the.Gun.2018.WEBRip.HiWayGropeThe.Old.Man.and.the.Gun.2018.WEBRip.HiWayGrope.avi
    Format                                   : AVI
    Format/Info                              : Audio Video Interleave
    File size                                : 1.25 GiB
    Duration                                 : 1 h 33 min
    Overall bit rate                         : 1 905 kb/s
    Writing application                      : VirtualDubMod 1.5.10.3 (build 2550/release)
    Writing library                          : VirtualDubMod build 2550/release

    Video
    ID                                       : 0
    Format                                   : MPEG-4 Visual
    Format profile                           : Simple@L5
    Format settings                          : BVOP1
    Format settings, BVOP                    : 1
    Format settings, QPel                    : No
    Format settings, GMC                     : No warppoints
    Format settings, Matrix                  : Default (MPEG)
    Codec ID                                 : XVID
    Codec ID/Hint                            : XviD
    Duration                                 : 1 h 33 min
    Bit rate                                 : 1 512 kb/s
    Width                                    : 720 pixels
    Height                                   : 304 pixels
    Display aspect ratio                     : 2.40:1
    Frame rate                               : 24.000 FPS
    Color space                              : YUV
    Chroma subsampling                       : 4:2:0
    Bit depth                                : 8 bits
    Scan type                                : Progressive
    Compression mode                         : Lossy
    Bits/(Pixel*Frame)                       : 0.288
    Stream size                              : 1 014 MiB (79%)
    Writing library                          : XviD 67

    Audio
    ID                                       : 1
    Format                                   : AC-3
    Format/Info                              : Audio Coding 3
    Commercial name                          : Dolby Digital
    Codec ID                                 : 2000
    Duration                                 : 1 h 33 min
    Bit rate mode                            : Constant
    Bit rate                                 : 384 kb/s
    Channel(s)                               : 6 channels
    Channel layout                           : L R C LFE Ls Rs
    Sampling rate                            : 48.0 kHz
    Frame rate                               : 31.250 FPS (1536 SPF)
    Bit depth                                : 16 bits
    Compression mode                         : Lossy
    Stream size                              : 257 MiB (20%)
    Alignment                                : Split accross interleaves
    Interleave, duration                     : 42  ms (1.00 video frame)
    Interleave, preload duration             : 500  ms
    Service kind                             : Complete Main

    Свернуть


    Похожие раздачи Искать похожие
    Инструкция по скачиванию
     1  Качаем uTorrent версии 2.0 и выше
     2  После установки, жмем выше под постером на ссылку Скачать [MediaGet] или Скачать .torrent
     3  Открываем скачанный файл через соответствующий клиент: MediaGet или uTorrent
     4  Ждем пока подключатся участники
     5  Качаем
    Комментарии о  Старик с пистолетом / The Old Man & the Gun | WEBRip 
    Ближайшее в кино
    Вверх