• Игры для PS4
  • Игры для PS3
  • Игры для XBOX360
  • Игры для PC
  • Игры для PS2
  • Игры для PSP
  • Для телефонов
  • Музыка
  • Книги / Журналы
  • Обои
  • Опрос
    Откуда Вы о нас узнали?
      0
    • От знакомых2,1,false,300,full
    • Из социальных сетей2,2,false,300,full
    • Из поисковых систем2,3,false,300,full
    • Другое2,4,false,300,full
    Статистика
    Всего онлайн -
    Гостей -
    Пользователей -
    Короли трекера
    
    Благодарности () Закрыть
    Оригинальное название: Kalbimin Sultanı
    Год выпуска: 2018
    Жанр:  Историческая мелодрама
    Выпущено: Россия, Турция, Киностудия КИТ, Maya Productions, Global Connection International Media Group.
    Режиссер: Керем Чакироглу
    В ролях: Александра Никифорова, Али Эрсан Дуру, Эмель Чольгечен, Тансель Онгель, Дмитрий Щербина, Андрей Руденский, Александр Соколовский, Олеся Фаттахова, Илья Шакунов, Бесте Кёкдемир, Тунджер Салман, Танер Румели, Бюлент Сейран

    О фильме: Стамбул, начало XIX века. Анна — дочь одного из чиновников, работающих в посольстве Российской империи. Она случайно знакомится с османским султаном Махмудом II. Впечатленный интеллектом и знаниями девушки, правитель приглашает ее работать учительницей его детей, но она поначалу отказывается и уступает только после того, как на нее начинает давить русский посол Дмитрий. Во время работы во дворце Анна понимает, что начинает влюбляться в Махмуда. Но она сталкивается с массой проблем, ведь дети султана не слушаются чужестранку, а обитательницы гарема воспринимают ее как соперницу. Этому есть причина: сам Махмуд тоже влюбляется в новую учительницу.

    [img]http://i2.imageban.ru/out/2017/09/18/145e9a8b2b671c7a607905a46d5fede5.png[/img]

    Качество: HDTV (1080i)
    Видео: MPEG-TS AVC, ~ 5600 Кбит/с, 1920x1080
    Аудио: Русский (AC3, 2 ch, 384 Кбит/с), (MP2, 2 ch, 192 Кбит/с)
    Продолжительность: 2 х ~ 00:50:00
    Перевод: Профессиональный многоголосый / Первый  канал
    Субтитры: нет



    MediaInfo

    Общее
    Идентификатор                            : 1 (0x1)
    Полное имя                               : D:ЗаписьSultan moego serdca.HDTV(1080i).GeneralFilm1.Sultan moego serdca.HDTV(1080i).GeneralFilm.ts
    Формат                                   : MPEG-TS
    Размер файла                             : 2,24 Гбайт
    Продолжительность                        : 48 м. 36 с.
    Режим общего битрейта                    : Переменный
    Общий поток                              : 6594 Кбит/сек

    Видео
    Идентификатор                            : 1904 (0x770)
    Идентификатор меню                       : 80 (0x50)
    Формат                                   : AVC
    Формат/Информация                        : Advanced Video Codec
    Профиль формата                          : High@L4
    Параметр CABAC формата                   : Да
    Параметр ReFrames формата                : 3 кадра
    Идентификатор кодека                     : 27
    Продолжительность                        : 48 м. 35 с.
    Битрейт                                  : 5686 Кбит/сек
    Ширина                                   : 1920 пикселей
    Высота                                   : 1080 пикселей
    Соотношение сторон                       : 16:9
    Частота кадров                           : 25,000 кадров/сек
    Стандарт вещания                         : Component
    Цветовое пространство                    : YUV
    Субдискретизация насыщенности            : 4:2:0
    Битовая глубина                          : 8 бит
    Тип развёртки                            : Чересстрочная
    Метод сохранения типа развёртки          : Раздельные поля
    Порядок развёртки                        : Верхнее поле первое
    Бит/(Пиксели*Кадры)                      : 0.110
    Размер потока                            : 1,93 Гбайт (86%)
    Цветовой диапазон                        : Limited
    Основные цвета                           : BT.709
    Характеристики трансфера                 : BT.709
    Коэффициенты матрицы                     : BT.709

    Аудио #1
    Идентификатор                            : 2904 (0xB58)
    Идентификатор меню                       : 80 (0x50)
    Формат                                   : AC-3
    Формат/Информация                        : Audio Coding 3
    Расширение режима                        : CM (complete main)
    Параметр Endianness формата              : Big
    Идентификатор кодека                     : 6
    Продолжительность                        : 48 м. 35 с.
    Вид битрейта                             : Постоянный
    Битрейт                                  : 384 Кбит/сек
    Каналы                                   : 6 каналов
    Расположение каналов                     : Front: L C R, Side: L R, LFE
    Частота                                  : 48,0 КГц
    Частота кадров                           : 31,250 кадров/сек (1536 spf)
    Битовая глубина                          : 16 бит
    Метод сжатия                             : С потерями
    Задержка видео                           : -120 мс.
    Размер потока                            : 133 Мбайт (6%)
    Язык                                     : Russian

    Аудио #2
    Идентификатор                            : 2905 (0xB59)
    Идентификатор меню                       : 80 (0x50)
    Формат                                   : MPEG Audio
    Версия формата                           : Version 1
    Профиль формата                          : Layer 2
    Идентификатор кодека                     : 3
    Продолжительность                        : 48 м. 35 с.
    Вид битрейта                             : Постоянный
    Битрейт                                  : 192 Кбит/сек
    Каналы                                   : 2 канала
    Частота                                  : 48,0 КГц
    Метод сжатия                             : С потерями
    Задержка видео                           : -120 мс.
    Размер потока                            : 66,7 Мбайт (3%)
    Язык                                     : Russian

    Общее
    Идентификатор                            : 1 (0x1)
    Полное имя                               : D:ЗаписьSultan moego serdca.HDTV(1080i).GeneralFilm2.Sultan moego serdca.HDTV(1080i).GeneralFilm.ts
    Формат                                   : MPEG-TS
    Размер файла                             : 2,16 Гбайт
    Продолжительность                        : 48 м. 12 с.
    Режим общего битрейта                    : Переменный
    Общий поток                              : 6414 Кбит/сек

    Видео
    Идентификатор                            : 1904 (0x770)
    Идентификатор меню                       : 80 (0x50)
    Формат                                   : AVC
    Формат/Информация                        : Advanced Video Codec
    Профиль формата                          : High@L4
    Параметр CABAC формата                   : Да
    Параметр ReFrames формата                : 3 кадра
    Идентификатор кодека                     : 27
    Продолжительность                        : 48 м. 12 с.
    Битрейт                                  : 5515 Кбит/сек
    Ширина                                   : 1920 пикселей
    Высота                                   : 1080 пикселей
    Соотношение сторон                       : 16:9
    Частота кадров                           : 25,000 кадров/сек
    Стандарт вещания                         : Component
    Цветовое пространство                    : YUV
    Субдискретизация насыщенности            : 4:2:0
    Битовая глубина                          : 8 бит
    Тип развёртки                            : Чересстрочная
    Метод сохранения типа развёртки          : Раздельные поля
    Порядок развёртки                        : Верхнее поле первое
    Бит/(Пиксели*Кадры)                      : 0.106
    Размер потока                            : 1,86 Гбайт (86%)
    Цветовой диапазон                        : Limited
    Основные цвета                           : BT.709
    Характеристики трансфера                 : BT.709
    Коэффициенты матрицы                     : BT.709

    Аудио #1
    Идентификатор                            : 2904 (0xB58)
    Идентификатор меню                       : 80 (0x50)
    Формат                                   : AC-3
    Формат/Информация                        : Audio Coding 3
    Расширение режима                        : CM (complete main)
    Параметр Endianness формата              : Big
    Идентификатор кодека                     : 6
    Продолжительность                        : 48 м. 12 с.
    Вид битрейта                             : Постоянный
    Битрейт                                  : 384 Кбит/сек
    Каналы                                   : 6 каналов
    Расположение каналов                     : Front: L C R, Side: L R, LFE
    Частота                                  : 48,0 КГц
    Частота кадров                           : 31,250 кадров/сек (1536 spf)
    Битовая глубина                          : 16 бит
    Метод сжатия                             : С потерями
    Задержка видео                           : -120 мс.
    Размер потока                            : 132 Мбайт (6%)
    Язык                                     : Russian

    Аудио #2
    Идентификатор                            : 2905 (0xB59)
    Идентификатор меню                       : 80 (0x50)
    Формат                                   : MPEG Audio
    Версия формата                           : Version 1
    Профиль формата                          : Layer 2
    Идентификатор кодека                     : 3
    Продолжительность                        : 48 м. 12 с.
    Вид битрейта                             : Постоянный
    Битрейт                                  : 192 Кбит/сек
    Каналы                                   : 2 канала
    Частота                                  : 48,0 КГц
    Метод сжатия                             : С потерями
    Задержка видео                           : -120 мс.
    Размер потока                            : 66,2 Мбайт (3%)
    Язык                                     : Russian

    Общее
    Полное имя                               : D:ЗаписьSultan moego serdca.HDTV(1080i).GeneralFilmSultan moego serdca.HDTV(1080i).GeneralFilm.torrent
    Размер файла                             : 24,9 Кбайт

    Свернуть
    Похожие раздачи Искать похожие
    Инструкция по скачиванию
     1  Качаем uTorrent версии 2.0 и выше
     2  После установки, жмем выше под постером на ссылку Скачать [MediaGet] или Скачать .torrent
     3  Открываем скачанный файл через соответствующий клиент: MediaGet или uTorrent
     4  Ждем пока подключатся участники
     5  Качаем
    Комментарии о  Султан моего сердца / Kalbimin Sultanı [Серии 01-02 из 24] | HDTV 1080i 
    Ближайшее в кино
    Вверх