• Игры для PS4
  • Игры для PS3
  • Игры для XBOX360
  • Игры для PC
  • Игры для PS2
  • Игры для PSP
  • Для телефонов
  • Музыка
  • Книги / Журналы
  • Обои
  • Опрос
    Откуда Вы о нас узнали?
      0
    • От знакомых2,1,false,300,full
    • Из социальных сетей2,2,false,300,full
    • Из поисковых систем2,3,false,300,full
    • Другое2,4,false,300,full
    Статистика
    Всего онлайн -
    Гостей -
    Пользователей -
    Короли трекера
    
    Благодарности () Закрыть
    Информация о фильме
    Название: Джиперс Криперс
    Оригинальное название: Jeepers Creepers
    Год выхода: 2001
    Жанр: ужасы, триллер
    Режиссер: Виктор Сальва
    В ролях: Джина Филипс, Джастин Лонг, Джонатан Брек, Патриция Белчер, Айлин Бреннан, Брэндон Смит, Пегги Шеффилд, Джеффри Уильям Эванс, Патрик Черри, Джон Бешара

    Описание: Если бы Дэрри и Триш знали, во что превратится их обычное путешествие домой на каникулы, то остались бы в колледже навсегда. Брат и сестра заметили его на безлюдной дороге рядом с жуткой, обветшалой церковью. Страшная фигура в длинном чёрном плаще и широкополой шляпе скидывала в подвал свертки, испачканные чем-то красным. После увиденного нужно было немедленно вдавить педаль газа взятой напрокат машины и умчаться от этого проклятого места как можно дальше. Но Дэрри и Триш допустили непоправимую, смертельную ошибку. Они решили вернуться и посмотреть: что же он прячет там, в подвале покосившейся церкви? Это безрассудное любопытство обернулось самым невообразимым кошмаром, который только можно себе представить…



    Страна: США, Германия
    Продолжительность: 01:30:44
    Перевод 1: Профессиональный (дублированный)
    Перевод 2: Профессиональный (многоголосый закадровый) СТС
    Перевод 3: Профессиональный (многоголосый закадровый) Первый Канал
    Перевод 4: Авторский (одноголосый закадровый) Андрей Гаврилов
    Перевод 5: Авторский (одноголосый закадровый) Юрий Живов
    Перевод 6: Авторский (одноголосый закадровый) Андрей Дольский
    Перевод 7: Любительский (одноголосый закадровый) Михаил Чадов
    Перевод 8: Любительский (одноголосый закадровый) Швецов
    Перевод 9: Профессиональный (многоголосый закадровый) K-1 (украинский)
    Субтитры: русские (2 вида) и английские (2 вида)
    Оригинальная аудиодорожка: английский

    Файл
    Качество: BDRemux 1080р
    Видео: MPEG-4 AVC, 1920x1080p (16:9), 23.976 fps, 32.8 Mb/s
    Аудио 1: русский / AC3 / 5.1 / 48 kHz / 448 kbps / 16 bit || Дубляж
    Аудио 2: русский / AC3 / 2.0 / 48 kHz / 192 kbps / 16 bit || СТС
    Аудио 3: русский / AC3 / 2.0 / 48 kHz / 192 kbps / 16 bit || Первый Канал
    Аудио 4: русский / AC3 / 5.1 / 48 kHz / 448 kbps / 16 bit || Андрей Гаврилов
    Аудио 5: русский / AC3 / 5.1 / 48 kHz / 448 kbps / 16 bit || Юрий Живов
    Аудио 6: русский / AC3 / 2.0 / 48 kHz / 192 kbps / 16 bit || Андрей Дольский
    Аудио 7: русский / AC3 / 5.1 / 48 kHz / 448 kbps / 16 bit || Михаил Чадов
    Аудио 8: русский / DTS-HD MA / 5.1 / 48 kHz / 3927 kbps / 24 bit || (DTS Core: 5.1, 48 kHz, 1509 kbps, 24-bit) || Швецов
    Аудио 9: украинский / AC3 / 2.0 / 48 kHz / 192 kbps / 16 bit || K-1
    Аудио 10: английский / DTS-HD MA / 5.1 / 48 kHz / 3840 kbps / 24 bit || (DTS Core: 5.1, 48 kHz, 1509 kbps, 24-bit) || ENG
    Аудио 11: английский / AC3 / 2.0 / 48 kHz / 224 kbps / 16 bit || Комментарий

    Скриншоты
    [screen]http://img15.lostpic.net/2019/01/08/9fc9115165ce2b0302eec793cecdfc22.png[/screen][screen]http://img15.lostpic.net/2019/01/08/cc02e178c84334cc9ff69de46098025d.png[/screen][screen]http://img15.lostpic.net/2019/01/08/2a88bc84f1e225988f9943bc6e58ff18.png[/screen][screen]http://img15.lostpic.net/2019/01/08/6a838f2af5007f8667f371e08a6bbd60.png[/screen]Свернуть


    MediaInfo
    General
    Unique ID : 247399781691026937630549979486071814432 (0xBA1F76FBC7BCFBB3A6A8B7FB56C7F920)
    Complete name : Jeepers Creepers.Collector"s Edition.Remastered.2001.BDRemux.1080p.8xRus.Ukr.Eng.Subs.Chpt.mkv
    Format : Matroska
    Format version : Version 4 / Version 2
    File size : 27.5 GiB
    Duration : 1 h 30 min
    Overall bit rate : 43.3 Mb/s
    Movie name : Jeepers Creepers.Collector"s Edition.Remastered.BDRemux
    Encoded date : UTC 2017-05-06 11:57:51
    Writing application : mkvmerge v8.5.2 ("Crosses") 64bit
    Writing library : libebml v1.3.3 + libmatroska v1.4.4

    Video
    ID : 1
    Format : AVC
    Format/Info : Advanced Video Codec
    Format profile : High@L4.1
    Format settings, CABAC : Yes
    Format settings, ReFrames : 4 frames
    Format settings, GOP : M=3, N=12
    Codec ID : V_MPEG4/ISO/AVC
    Duration : 1 h 30 min
    Bit rate mode : Constant
    Bit rate : 32.8 Mb/s
    Nominal bit rate : 35.0 Mb/s
    Width : 1 920 pixels
    Height : 1 080 pixels
    Display aspect ratio : 16:9
    Frame rate mode : Constant
    Frame rate : 23.976 (24000/1001) FPS
    Color space : YUV
    Chroma subsampling : 4:2:0
    Bit depth : 8 bits
    Scan type : Progressive
    Bits/(Pixel*Frame) : 0.660
    Stream size : 20.8 GiB (76%)
    Title : Jeepers Creepers.Collector"s Edition.Remastered.BDRemux
    Language : English
    Default : Yes
    Forced : No

    Audio #1
    ID : 2
    Format : AC-3
    Format/Info : Audio Coding 3
    Mode extension : CM (complete main)
    Format settings, Endianness : Big
    Codec ID : A_AC3
    Duration : 1 h 30 min
    Bit rate mode : Constant
    Bit rate : 448 kb/s
    Channel(s) : 6 channels
    Channel positions : Front: L C R, Side: L R, LFE
    Sampling rate : 48.0 kHz
    Frame rate : 31.250 FPS (1536 spf)
    Compression mode : Lossy
    Stream size : 291 MiB (1%)
    Title : DUB
    Language : Russian
    Default : Yes
    Forced : No

    Audio #2
    ID : 3
    Format : AC-3
    Format/Info : Audio Coding 3
    Mode extension : CM (complete main)
    Format settings, Endianness : Big
    Codec ID : A_AC3
    Duration : 1 h 30 min
    Bit rate mode : Constant
    Bit rate : 192 kb/s
    Channel(s) : 2 channels
    Channel positions : Front: L R
    Sampling rate : 48.0 kHz
    Frame rate : 31.250 FPS (1536 spf)
    Compression mode : Lossy
    Stream size : 125 MiB (0%)
    Title : MVO (СТС)
    Language : Russian
    Default : No
    Forced : No

    Audio #3
    ID : 4
    Format : AC-3
    Format/Info : Audio Coding 3
    Mode extension : CM (complete main)
    Format settings, Endianness : Big
    Codec ID : A_AC3
    Duration : 1 h 30 min
    Bit rate mode : Constant
    Bit rate : 192 kb/s
    Channel(s) : 2 channels
    Channel positions : Front: L R
    Sampling rate : 48.0 kHz
    Frame rate : 31.250 FPS (1536 spf)
    Compression mode : Lossy
    Stream size : 125 MiB (0%)
    Title : MVO (Первый Канал)
    Language : Russian
    Default : No
    Forced : No

    Audio #4
    ID : 5
    Format : AC-3
    Format/Info : Audio Coding 3
    Mode extension : CM (complete main)
    Format settings, Endianness : Big
    Codec ID : A_AC3
    Duration : 1 h 30 min
    Bit rate mode : Constant
    Bit rate : 448 kb/s
    Channel(s) : 6 channels
    Channel positions : Front: L C R, Side: L R, LFE
    Sampling rate : 48.0 kHz
    Frame rate : 31.250 FPS (1536 spf)
    Compression mode : Lossy
    Stream size : 291 MiB (1%)
    Title : AVO (Андрей Гаврилов)
    Language : Russian
    Default : No
    Forced : No

    Audio #5
    ID : 6
    Format : AC-3
    Format/Info : Audio Coding 3
    Mode extension : CM (complete main)
    Format settings, Endianness : Big
    Codec ID : A_AC3
    Duration : 1 h 30 min
    Bit rate mode : Constant
    Bit rate : 448 kb/s
    Channel(s) : 6 channels
    Channel positions : Front: L C R, Side: L R, LFE
    Sampling rate : 48.0 kHz
    Frame rate : 31.250 FPS (1536 spf)
    Compression mode : Lossy
    Stream size : 291 MiB (1%)
    Title : AVO (Юрий Живов)
    Language : Russian
    Default : No
    Forced : No

    Audio #6
    ID : 7
    Format : AC-3
    Format/Info : Audio Coding 3
    Mode extension : CM (complete main)
    Format settings, Endianness : Big
    Codec ID : A_AC3
    Duration : 1 h 30 min
    Bit rate mode : Constant
    Bit rate : 192 kb/s
    Channel(s) : 2 channels
    Channel positions : Front: L R
    Sampling rate : 48.0 kHz
    Frame rate : 31.250 FPS (1536 spf)
    Compression mode : Lossy
    Stream size : 125 MiB (0%)
    Title : AVO (Андрей Дольский)
    Language : Russian
    Default : No
    Forced : No

    Audio #7
    ID : 8
    Format : AC-3
    Format/Info : Audio Coding 3
    Mode extension : CM (complete main)
    Format settings, Endianness : Big
    Codec ID : A_AC3
    Duration : 1 h 30 min
    Bit rate mode : Constant
    Bit rate : 448 kb/s
    Channel(s) : 6 channels
    Channel positions : Front: L C R, Side: L R, LFE
    Sampling rate : 48.0 kHz
    Frame rate : 31.250 FPS (1536 spf)
    Compression mode : Lossy
    Stream size : 291 MiB (1%)
    Title : VO (Михаил Чадов)
    Language : Russian
    Default : No
    Forced : No

    Audio #8
    ID : 9
    Format : DTS
    Format/Info : Digital Theater Systems
    Format profile : MA / Core
    Mode : 16
    Format settings, Endianness : Big
    Codec ID : A_DTS
    Duration : 1 h 30 min
    Bit rate mode : Variable / Constant
    Bit rate : 3 927 kb/s / 1 509 kb/s
    Channel(s) : 6 channels
    Channel positions : Front: L C R, Side: L R, LFE
    Sampling rate : 48.0 kHz
    Frame rate : 93.750 FPS (512 spf)
    Bit depth : 24 bits
    Compression mode : Lossless / Lossy
    Stream size : 2.49 GiB (9%)
    Title : VO (И. Швецов)
    Language : Russian
    Default : No
    Forced : No

    Audio #9
    ID : 10
    Format : AC-3
    Format/Info : Audio Coding 3
    Format profile : Dolby Digital
    Mode extension : CM (complete main)
    Format settings, Endianness : Big
    Codec ID : A_AC3
    Duration : 1 h 30 min
    Bit rate mode : Constant
    Bit rate : 192 kb/s
    Channel(s) : 2 channels
    Channel positions : Front: L R
    Sampling rate : 48.0 kHz
    Frame rate : 31.250 FPS (1536 spf)
    Compression mode : Lossy
    Stream size : 125 MiB (0%)
    Title : MVO (K1)
    Language : Ukrainian
    Default : No
    Forced : No

    Audio #10
    ID : 11
    Format : DTS
    Format/Info : Digital Theater Systems
    Format profile : MA / Core
    Mode : 16
    Format settings, Endianness : Big
    Codec ID : A_DTS
    Duration : 1 h 30 min
    Bit rate mode : Variable / Constant
    Bit rate : 3 840 kb/s / 1 509 kb/s
    Channel(s) : 6 channels
    Channel positions : Front: L C R, Side: L R, LFE
    Sampling rate : 48.0 kHz
    Frame rate : 93.750 FPS (512 spf)
    Bit depth : 24 bits
    Compression mode : Lossless / Lossy
    Stream size : 2.43 GiB (9%)
    Title : Original
    Language : English
    Default : No
    Forced : No

    Audio #11
    ID : 12
    Format : AC-3
    Format/Info : Audio Coding 3
    Mode extension : CM (complete main)
    Format settings, Endianness : Big
    Codec ID : A_AC3
    Duration : 1 h 30 min
    Bit rate mode : Constant
    Bit rate : 224 kb/s
    Channel(s) : 2 channels
    Channel positions : Front: L R
    Sampling rate : 48.0 kHz
    Frame rate : 31.250 FPS (1536 spf)
    Compression mode : Lossy
    Stream size : 145 MiB (1%)
    Title : Commentary
    Language : English
    Default : No
    Forced : No

    Text #1
    ID : 13
    Format : UTF-8
    Codec ID : S_TEXT/UTF8
    Codec ID/Info : UTF-8 Plain Text
    Duration : 1 h 25 min
    Bit rate : 67 b/s
    Count of elements : 773
    Stream size : 42.3 KiB (0%)
    Title : Full 1
    Language : Russian
    Default : No
    Forced : No

    Text #2
    ID : 14
    Format : UTF-8
    Codec ID : S_TEXT/UTF8
    Codec ID/Info : UTF-8 Plain Text
    Duration : 1 h 20 min
    Bit rate : 71 b/s
    Count of elements : 795
    Stream size : 42.2 KiB (0%)
    Title : Full 2
    Language : Russian
    Default : No
    Forced : No

    Text #3
    ID : 15
    Format : UTF-8
    Codec ID : S_TEXT/UTF8
    Codec ID/Info : UTF-8 Plain Text
    Duration : 1 h 20 min
    Bit rate : 43 b/s
    Count of elements : 807
    Stream size : 25.6 KiB (0%)
    Title : Full
    Language : English
    Default : No
    Forced : No

    Text #4
    ID : 16
    Format : UTF-8
    Codec ID : S_TEXT/UTF8
    Codec ID/Info : UTF-8 Plain Text
    Duration : 1 h 23 min
    Bit rate : 51 b/s
    Count of elements : 944
    Stream size : 31.5 KiB (0%)
    Title : SDH
    Language : English
    Default : No
    Forced : No

    Menu
    00:00:00.000 : en:Chapter 1
    00:09:23.688 : en:Chapter 2
    00:15:56.830 : en:Chapter 3
    00:25:27.734 : en:Chapter 4
    00:33:24.669 : en:Chapter 5
    00:43:01.287 : en:Chapter 6
    00:49:49.528 : en:Chapter 7
    00:56:51.408 : en:Chapter 8
    01:01:19.592 : en:Chapter 9
    01:09:18.571 : en:Chapter 10
    01:15:51.463 : en:Chapter 11
    01:20:56.017 : en:Chapter 12Свернуть


    Сравнение
    Shout Factory! | MGM

    [screen]http://img15.lostpic.net/2019/01/08/1f1f613d099fae07f5f22dc4ddf8403c.png[/screen][screen]http://img15.lostpic.net/2019/01/08/ecc34deedca0f50eb5f709f972ef3a86.png[/screen]
    [screen]http://img15.lostpic.net/2019/01/08/397c3554af2a97c0e43ae6519bc5b7d4.png[/screen][screen]http://img15.lostpic.net/2019/01/08/41dad1dde2f15c43750243508e2f3509.png[/screen]
    Свернуть
    Похожие раздачи Искать похожие
    Инструкция по скачиванию
     1  Качаем uTorrent версии 2.0 и выше
     2  После установки, жмем выше под постером на ссылку Скачать [MediaGet] или Скачать .torrent
     3  Открываем скачанный файл через соответствующий клиент: MediaGet или uTorrent
     4  Ждем пока подключатся участники
     5  Качаем
    Комментарии о  Джиперс Криперс / Jeepers Creepers | BDRemux 1080p 
    Ближайшее в кино
    Вверх